<?xml version="1.0" standalone="no"?>
<!DOCTYPE svg PUBLIC "-//W3C//DTD SVG 1.1//EN" "http://www.w3.org/Graphics/SVG/1.1/DTD/svg11.dtd" >
<svg xmlns="http://www.w3.org/2000/svg">
  <metadata>Created by iconfont</metadata>
  <defs>
  <font id="iconfont" horiz-adv-x="1024">
    <font-face
      font-family="iconfont"
      font-weight="400"
      font-stretch="normal"
      units-per-em="1024"
      ascent="896"
      descent="-128"
    />
      <missing-glyph />
      
      <glyph glyph-name="FC" unicode="&#59103;" d="M1809.096 532.992l-7.76-45.04H1471.52l36.112 207.6-372.8-311.704h195.504l-7.76-43.84-47.16-268.456 239.976 225.8h252.816l-7.76-43.848-3.288-19.088c-11.336-64.432-44.472-123.792-90.736-170.024l-0.296-0.296a326.872 326.872 0 0 0-39.4-33.712 332.272 332.272 0 0 0-21.192-14.312c-9.552-5.968-19.104-11.632-29.256-16.408-41.488-20.584-86.56-32.216-132.52-32.216h-251.328c-12.832 0-25.368 1.192-37.304 2.984-27.464 4.472-52.536 13.128-74.92 25.656a163.968 163.968 0 0 0-12.24 7.456c-2.088 1.488-4.176 2.68-6.264 4.176a163.944 163.944 0 0 0-16.12 12.528c-2.984 2.68-5.968 5.072-8.656 8.048l-2.088 2.392c-18.512 18.488-33.432 40.56-44.176 65.32 0 0.296 0 0.6-0.304 0.896-0.592 1.488-1.192 3.28-2.088 4.776-0.296 0.888-0.592 1.488-0.896 2.384-0.592 1.192-0.896 2.384-1.488 3.576l-1.792 5.368v0.896c-0.6 1.792-1.192 3.28-1.792 5.072v0.6c-5.072 16.4-8.056 33.704-9.256 51.6a373.472 373.472 0 0 0-0.592 18.192c0 14.92 1.488 29.832 4.176 45.344l79.4 451.296v1.496c0 1.488 0 3.28-0.304 4.768-0.296 1.496-0.896 2.688-1.488 4.176a10.76 10.76 0 0 1-2.088 2.984l-45.968 55.776-36.12 43.848h619.952c49.248 0 93.128-13.424 128.344-36.984 2.088-1.2 3.88-2.688 5.968-3.88 0.6-0.296 1.2-0.896 1.792-1.488 1.192-0.896 2.688-1.792 3.88-2.984 0.6-0.6 1.496-1.2 2.088-1.488 1.2-0.896 2.392-2.096 3.88-2.984 0.6-0.6 1.2-0.896 1.792-1.496 1.792-1.488 3.288-2.984 5.08-4.472 0.896-0.6 1.488-1.488 2.384-2.088 0.896-0.896 1.792-1.792 2.688-2.384l2.688-2.688 2.088-2.08c0.896-0.904 1.792-2.096 2.984-2.992l1.192-1.192c2.392-2.68 4.776-5.072 6.864-7.76 1.2-1.488 2.392-2.68 3.288-4.168 0-0.304 0.592-0.6 0.592-0.896 1.2-1.496 2.096-2.984 3.288-4.48 4.776-6.56 9.248-13.12 13.128-20.28 25.376-44.44 35.52-99.92 25.072-159.88v0.6zM881.72 795.184l-3.888 4.768H192.816s-2.68 0-3.88-0.296a14.096 14.096 0 0 1-4.48-1.792 16.4 16.4 0 0 1-7.16-7.76 16.536 16.536 0 0 1 2.392-18.192l9.248-11.328 3.584-4.184 10.448-12.824 2.088-2.384 32.536-39.376c1.792-2.384 2.984-5.072 3.584-8.048 0 0 0.296-2.392 0.296-3.584v-2.088l-53.128-301.56-73.728-418.192h341.76l45.072 255.92h380.272l28.952 164.36 7.76 43.84H538.16l28.36 160.184h379.968l18.208 102.608-50.744 61.744-31.936 38.776-0.296-0.592zM918.128 431.872l-7.76-43.84H570.992l-33.424 43.84h380.56z m-676.96 261.6s0.304-2.392 0.304-3.584v-2.088L188.344 386.24l-73.728-418.192h41.192L275.2 643.952v0.896a17.408 17.408 0 0 1-3.584 13.12l-29.84 35.8-0.6-0.304z m-52.232 67.112l3.584-4.184h721.136l-31.936 38.784-3.888 4.768H192.816s-2.68 0-3.88-0.296a14.096 14.096 0 0 1-4.48-1.792 16.4 16.4 0 0 1-7.16-7.76 16.536 16.536 0 0 1 2.392-18.192l9.248-11.328zM1275.12 71.84l33.432-43.848 239.984 225.8h211.624l7.76 43.84h-252.816l-239.984-225.792z m-188.04 581.944s-1.192 2.088-2.088 2.984l-29.848 36.4c0.296-1.496 0.592-3.288 0.296-4.784v-1.488l-79.392-451.296c-2.688-15.52-4.184-30.72-4.184-45.344 0-6.264 0-12.224 0.6-18.192 1.192-17.896 4.472-35.2 9.248-51.6v-0.6c0.6-1.792 1.2-3.28 1.792-5.072v-0.896l1.792-5.36c0.296-1.2 0.896-2.4 1.496-3.584 0-0.896 0.592-1.496 0.896-2.392 0.592-1.488 1.192-3.28 2.088-4.768 0-0.296 0-0.6 0.296-0.896 10.744-24.76 25.672-46.832 44.176-65.32-7.16 12.224-12.832 25.352-17.608 39.072a131.6 131.6 0 0 0-1.792 5.664c-10.448 34.904-13.136 73.976-5.672 115.44l79.4 451.296c0.296 2.384 0 4.48 0 6.864-0.304 1.488-0.896 2.68-1.496 4.176v-0.304z m697.256 39.08c-3.88 7.16-8.36 13.72-13.136 20.28-1.192 1.496-2.088 2.984-3.28 4.48 0 0.296-0.6 0.592-0.6 0.888-1.192 1.496-2.088 2.688-3.28 4.176a86.56 86.56 0 0 1-6.864 7.76l-1.2 1.192c-0.896 0.896-1.792 2.08-2.984 2.984a513.8 513.8 0 0 1-2.088 2.08l-2.688 2.688c-0.896 0.896-1.792 1.792-2.688 2.392-0.896 0.592-1.488 1.488-2.384 2.08a77.856 77.856 0 0 1-5.072 4.48c-0.6 0.592-1.2 0.896-1.792 1.488-1.192 0.896-2.392 2.088-3.88 2.984a9.208 9.208 0 0 1-2.088 1.488c-1.2 0.896-2.688 2.088-3.88 2.984-0.6 0.6-1.2 0.896-1.792 1.496-1.792 1.488-3.88 2.68-5.976 3.88-35.512 23.264-79.096 36.984-128.344 36.984h-619.944l36.112-43.848h617.264c49.248 0 93.128-13.424 128.344-36.984a187.416 187.416 0 0 0 32.536-26.848l-0.296 0.896z m-454.288-308.72h-195.512l33.432-43.848h154.312l7.768 43.84z m177.296 311.4l-36.12-207.6h40.896l28.352 164.056-33.424 43.84 0.296-0.296z"  horiz-adv-x="1912" />
      
      <glyph glyph-name="copy" unicode="&#59102;" d="M810.666667 170.666667V682.666667H298.666667V725.333333a42.666667 42.666667 0 0 0 42.666666 42.666667h512a42.666667 42.666667 0 0 0 42.666667-42.666667v-512a42.666667 42.666667 0 0 0-42.666667-42.666666h-42.666666zM170.666667 597.333333h512a42.666667 42.666667 0 0 0 42.666666-42.666666v-512a42.666667 42.666667 0 0 0-42.666666-42.666667H170.666667a42.666667 42.666667 0 0 0-42.666667 42.666667V554.666667a42.666667 42.666667 0 0 0 42.666667 42.666666z"  horiz-adv-x="1024" />
      
      <glyph glyph-name="fav" unicode="&#59101;" d="M714.785519 766.39827c-84.678588 0-159.198815-42.985-202.785519-108.129696-43.586704 65.144696-118.106932 108.129696-202.785519 108.129696-134.387733 0-243.345284-108.138906-243.345284-241.516636 0-281.763269 324.458673-422.648996 446.130803-523.279904 121.673154 100.630908 446.130803 241.516636 446.130803 523.279904C958.130803 658.259364 849.173253 766.39827 714.785519 766.39827z"  horiz-adv-x="1024" />
      
      <glyph glyph-name="right1" unicode="&#59104;" d="M238.267074-110.187757A59.419466 59.419466 0 0 0 219.00447-66.586288a60.18997 60.18997 0 0 0 19.171956 44.009384l418.202452 406.826185L238.131103 790.576904A60.824503 60.824503 0 0 0 219.00447 834.586288 60.053999 60.053999 0 0 0 238.131103 878.278405 62.864073 62.864073 0 0 0 325.923251 877.870491l461.985216-447.254991a67.985659 67.985659 0 0 0 16.951091-43.238879v-5.302881a65.946089 65.946089 0 0 0-17.766919-45.097154l-0.815828-0.815828L325.832603-110.187757a62.546807 62.546807 0 0 0-87.565529 0z"  horiz-adv-x="1024" />
      
      <glyph glyph-name="style_1_icon_top_kf" unicode="&#59100;" d="M477.585198-53.130721a79.315364 79.315364 0 0 0-71.921559 44.138776h-69.905066a132.237084 132.237084 0 0 0-135.239419 128.786642v21.419629h-12.815929a39.747304 39.747304 0 0 0-40.777955 38.671842v295.304095c0 0.448109 0.358488 0.761785 0.582542 1.120274a361.713909 361.713909 0 0 0 364.312945 344.820184 361.75872 361.75872 0 0 0 364.536998-344.730562 2.330169 2.330169 0 0 0 0.537731-1.209896v-295.124852a39.56806 39.56806 0 0 0-40.777956-38.716652h-132.864438a39.702493 39.702493 0 0 0-40.598711 38.716652v258.962424a39.747304 39.747304 0 0 0 40.598711 38.716651h75.103137a266.938771 266.938771 0 0 1-533.026134 0h75.103136a39.702493 39.702493 0 0 0 40.777955-38.716651v-258.917613a39.702493 39.702493 0 0 0-40.777955-38.716652h-54.669348v-21.509251a68.560739 68.560739 0 0 1 70.084311-66.768301h69.367336a79.494608 79.494608 0 0 0 72.369668 44.900562h68.874415a75.551246 75.551246 0 1 0 0-151.05768l-68.874415-0.089621z m451.111734 274.467008v176.465483a14.877232 14.877232 0 0 0 17.476267 14.3395 85.140786 85.140786 0 0 0 70.666853-82.272885v-40.553901a85.140786 85.140786 0 0 0-70.666853-82.272887 14.742799 14.742799 0 0 0-13.264038 4.032985 14.877232 14.877232 0 0 0-4.391472 10.261705h0.179243z m-850.959754-14.339501a85.140786 85.140786 0 0 0-70.622041 82.317698v40.464278a85.140786 85.140786 0 0 0 70.666853 82.362508 14.78761 14.78761 0 0 0 17.476267-14.3395v-176.465483a14.742799 14.742799 0 0 0-17.476267-14.339501H77.78199z"  horiz-adv-x="1024" />
      
      <glyph glyph-name="icon_sy_zc_yy" unicode="&#59098;" d="M510.717082-82.033778A466.081577 466.081577 0 0 0 181.147555 713.569528 465.985979 465.985979 0 0 0 689.004877 814.567412 465.938181 465.938181 0 0 0 976.75086 384a466.081577 466.081577 0 0 0-466.033778-466.033778z m0 89.621881c12.236375 0 42.301528 22.991 70.550344 84.459659a690.399168 690.399168 0 0 1 53.773129 247.021803H386.441408a685.906124 685.906124 0 0 1 53.773128-247.021803c28.201018-61.46866 58.218374-84.45966 70.741538-84.459659h-0.238992z m142.678034 28.296614a377.511259 377.511259 0 0 1 231.009359 303.184848h-159.742039a743.503119 743.503119 0 0 0-71.123925-303.184848h-0.143395z m-285.83405 0A749.286718 749.286718 0 0 0 296.580536 339.069565h-159.646442a377.559058 377.559058 0 0 1 230.865963-303.184848h-0.143395z m516.843409 393.236912a377.606856 377.606856 0 0 1-231.009359 303.137049 744.028901 744.028901 0 0 0 71.26732-303.137049h159.742039z m-249.507315 0a687.483469 687.483469 0 0 1-53.773128 246.878406c-28.248817 61.612055-58.361768 84.603055-70.645941 84.603056-12.236375 0-42.492721-23.038799-70.741538-84.603056a685.810528 685.810528 0 0 1-53.725329-246.878406h248.885936z m-338.41222 0a749.238919 749.238919 0 0 0 71.123924 303.137049 377.606856 377.606856 0 0 1-230.818165-303.137049H296.580536z"  horiz-adv-x="1024" />
      
      <glyph glyph-name="input_icon_mm" unicode="&#59097;" d="M808.719596 506.269453v73.598466a292.751234 292.751234 0 0 1-273.956959 294.393867 287.823337 287.823337 0 0 1-303.033687-285.860711v-81.74763H220.166524A70.547864 70.547864 0 0 1 149.341333 436.404242v-472.758151a70.547864 70.547864 0 0 1 70.825191-70.270536h600.072832a70.569196 70.569196 0 0 1 70.825191 70.270536V436.404242a70.547864 70.547864 0 0 1-70.825191 70.249203z m-480.864649 74.963771a192.294661 192.294661 0 1 0 384.567988 0v-74.985104H327.87628z m254.032041-502.048207a20.116914 20.116914 0 0 0-4.906564-15.850336 20.756901 20.756901 0 0 0-15.35968-6.826525h-82.387617a20.756901 20.756901 0 0 0-15.402346 6.826525 20.202246 20.202246 0 0 0-4.906564 15.829003l13.013062 116.00825a80.574321 80.574321 0 0 0-33.74863 65.747964 82.430283 82.430283 0 1 0 164.839232 0 80.574321 80.574321 0 0 0-33.705964-65.747964z"  horiz-adv-x="1024" />
      
      <glyph glyph-name="icon_gb" unicode="&#59096;" d="M132.921844 648.551833m60.671502 60.671502l0 0q60.671502 60.671502 121.343005 0l525.819691-525.819688q60.671502-60.671502 0-121.343006l0 0q-60.671502-60.671502-121.343006 0l-525.81969 525.819691q-60.671502 60.671502 0 121.343003ZM901.425638 648.544421m-60.671504 60.671501l0 0q-60.671502 60.671502-121.343005 0l-525.819691-525.81969q-60.671502-60.671502 0-121.343006l0 0q60.671502-60.671502 121.343006 0l525.81969 525.819691q60.671502 60.671502 0 121.343005Z"  horiz-adv-x="1024" />
      
      <glyph glyph-name="comm_icon_cz_kf" unicode="&#59095;" d="M359.168 10.2912a122.9312 122.9312 0 0 0 241.0496 33.9456h131.584l58.0096 167.3728a96.256 96.256 0 0 0-64.2048 90.7776v134.656a96.6144 96.6144 0 0 0 80.7936 95.0784 291.584 291.584 0 0 1-289.9968 282.112h-8.704a291.6864 291.6864 0 0 1-289.9456-282.112 96.5632 96.5632 0 0 0 80.8448-95.0784v-134.656a96.6144 96.6144 0 0 0-96.3584-96.256h-36.9664a96.512 96.512 0 0 0-96.3072 96.256v134.656a96.4608 96.4608 0 0 0 80.896 95.0784c0.256 46.3872 9.984 92.16 28.5696 134.656a349.184 349.184 0 0 0 77.824 112.2816A360.3968 360.3968 0 0 0 371.3536 854.528a372.8384 372.8384 0 0 0 281.3952 0c42.8544-17.5616 81.92-43.1616 115.0976-75.4688a347.8016 347.8016 0 0 0 106.4448-246.8864 96.768 96.768 0 0 0 80.896-95.0784v-134.656a96.6144 96.6144 0 0 0-95.5392-96.256l-71.68-206.9504a33.9968 33.9968 0 0 0-32.0512-22.8352h-155.648a122.9824 122.9824 0 0 0-241.152 33.9456z m83.968 38.912a54.1696 54.1696 0 0 1-16.0768-38.912 55.0912 55.0912 0 1 1 16.0256 38.912z m350.3616 387.84v-134.656a28.5184 28.5184 0 0 1 28.4672-28.4672h36.9664a28.416 28.416 0 0 1 28.416 28.4672v134.656a28.4672 28.4672 0 0 1-28.416 28.4672h-36.9664a28.5184 28.5184 0 0 1-28.4672-28.416v-0.0512z m-656.64 0v-134.656a28.4672 28.4672 0 0 1 28.416-28.4672h36.9664a28.5184 28.5184 0 0 1 28.4672 28.4672v134.656a28.5184 28.5184 0 0 1-28.4672 28.4672h-36.9664a28.4672 28.4672 0 0 1-28.416-28.416v-0.0512z"  horiz-adv-x="1024" />
      
      <glyph glyph-name="comm_icon_gou" unicode="&#59094;" d="M484.869509-102.53818L35.43084 281.641776A104.031673 104.031673 0 0 0 25.259764 427.791259a102.393379 102.393379 0 0 0 145.262073 10.239338l371.210129-317.282949L1184.557596 860.30089a102.393379 102.393379 0 0 0 145.262073 10.239338 104.099935 104.099935 0 0 0 10.171076-146.149483L630.06332-92.298842a102.393379 102.393379 0 0 0-77.750705-35.632896 101.983805 101.983805 0 0 0-67.443106 25.393558z"  horiz-adv-x="1365" />
      
      <glyph glyph-name="login_icon_zj" unicode="&#59092;" d="M103.616-54.485333a81.514667 81.514667 0 0 0-59.093333 25.258666 84.586667 84.586667 0 0 0-23.125334 61.866667 428.096 428.096 0 0 0 48.576 173.76 427.968 427.968 0 0 0 64.832 92.330667 420.757333 420.757333 0 0 0 99.456 78.933333l13.76 8 11.370667-10.922667a295.637333 295.637333 0 0 1 205.205333-82.432 295.36 295.36 0 0 1 205.205334 82.432l11.370666 10.922667 13.674667-8a418.133333 418.133333 0 0 0 52.074667-35.178667 254.464 254.464 0 0 1-123.925334-217.834666 251.498667 251.498667 0 0 1 74.218667-179.050667v-0.106667z m730.496 52.544v84.437333H749.653333a42.176 42.176 0 0 0-42.176 42.176 42.197333 42.197333 0 0 0 42.176 42.282667h84.458667v84.437333a42.176 42.176 0 0 0 42.24 42.176 42.112 42.112 0 0 0 42.218667-42.176v-84.437333h84.416a42.304 42.304 0 0 0 42.282666-42.282667 42.282667 42.282667 0 0 0-42.282666-42.176h-84.416v-84.437333a42.218667 42.218667 0 0 0-42.218667-42.282667 42.282667 42.282667 0 0 0-42.261333 42.282667zM287.978667 409.6a244.672 244.672 0 0 0-73.173334 174.933333 245.12 245.12 0 0 0 73.173334 175.104 250.026667 250.026667 0 0 0 176.661333 72.277334 249.6 249.6 0 0 0 176.448-72.277334 244.736 244.736 0 0 0 73.301333-175.104 244.288 244.288 0 0 0-73.301333-174.933333 248.810667 248.810667 0 0 0-176.448-72.533333 249.301333 249.301333 0 0 0-176.682667 72.512z"  horiz-adv-x="1066" />
      
      <glyph glyph-name="login_icon_dl" unicode="&#59093;" d="M606.058667-40.832V808.896A44.394667 44.394667 0 0 0 650.304 853.333333a42.026667 42.026667 0 0 0 14.762667-2.56l262.4-92.181333a44.522667 44.522667 0 0 0 29.653333-41.941333v-665.301334a44.416 44.416 0 0 0-29.653333-41.856l-262.4-92.266666a44.181333 44.181333 0 0 0-59.008 41.941333zM242.538667-17.066667a37.013333 37.013333 0 0 0-36.949334 36.970667V285.269333H279.466667v-228.266666h220.309333a38.037333 38.037333 0 0 0 38.4-35.968A36.949333 36.949333 0 0 0 501.333333-17.066667z m109.76 314.496v52.672H100.906667A36.885333 36.885333 0 0 0 64 388.266667a37.952 37.952 0 0 0 38.4 35.882666h249.813333v52.693334a24.725333 24.725333 0 0 0 39.530667 19.818666l119.872-89.6a24.789333 24.789333 0 0 0 0-39.701333l-119.872-89.770667a24.405333 24.405333 0 0 0-14.656-4.906666 24.768 24.768 0 0 0-24.789333 24.682666z m-146.730667 191.573334V754.282667a37.034667 37.034667 0 0 0 36.970667 37.056H501.333333A36.970667 36.970667 0 0 0 538.24 753.066667a37.952 37.952 0 0 0-38.4-35.797334H279.466667v-228.266666z"  horiz-adv-x="1024" />
      
      <glyph glyph-name="icon_sy_zc_rw" unicode="&#59084;" d="M1016.250483-211.675012H319.992105a245.829774 245.829774 0 0 0-175.037023 72.485919 245.921297 245.921297 0 0 0-72.531681 175.037023V732.15207a245.921297 245.921297 0 0 0 72.48592 175.037023 245.967058 245.967058 0 0 0 175.037023 72.485919h696.258378a246.05858 246.05858 0 0 0 175.082784-72.531681 245.967058 245.967058 0 0 0 72.48592-175.037022v-696.30414a245.967058 245.967058 0 0 0-72.48592-175.037023 245.967058 245.967058 0 0 0-175.037023-72.440158zM411.102879 358.099097a144.97184 144.97184 0 0 1-144.834556-144.834556 145.017601 145.017601 0 0 1 144.834556-144.880317 145.017601 145.017601 0 0 1 144.880317 144.880317 145.017601 145.017601 0 0 1-144.834555 144.834556z m310.17018-101.727399a53.174646 53.174646 0 0 1-53.174645-53.174646 53.174646 53.174646 0 0 1 53.174645-53.174646h319.139398a53.174646 53.174646 0 0 1 53.174646 53.174646 53.174646 53.174646 0 0 1-53.174646 53.174646z m-414.322928 399.130173a46.081642 46.081642 0 0 1-32.856623-13.728394 46.127404 46.127404 0 0 1-13.728394-32.856623 46.173165 46.173165 0 0 1 13.728394-32.856623l79.350117-79.395878a46.264688 46.264688 0 0 1 4.576131-4.118518l0.457613-0.549136 0.503375-0.549136a46.447733 46.447733 0 0 1 33.451519-14.369052 46.081642 46.081642 0 0 1 31.71259 12.630122l147.351429 139.75505a47.317198 47.317198 0 0 1 2.333827 65.942053l-0.228807 0.274567a46.218926 46.218926 0 0 1-33.405759 14.369053 45.761313 45.761313 0 0 1-31.71259-12.630123l-115.226986-109.278015-53.174646 53.174645a46.081642 46.081642 0 0 1-32.902384 13.728394z m414.322928-16.199505a53.174646 53.174646 0 0 1-53.174645-53.174646 53.174646 53.174646 0 0 1 53.174645-53.174646h319.139398a53.174646 53.174646 0 0 1 53.174646 53.174646 53.174646 53.174646 0 0 1-53.174646 53.174646z m-310.17018-477.656586a51.618761 51.618761 0 0 0-51.527238 51.573 51.573 51.573 0 0 0 51.527238 51.527238 51.618761 51.618761 0 0 0 51.573-51.527238 51.618761 51.618761 0 0 0-51.573-51.573z"  horiz-adv-x="1331" />
      
      <glyph glyph-name="icon_sy_zc_sm" unicode="&#59091;" d="M1755.463376 522.707306s22.079404-517.618025-618.89529-537.585486a199.194622 199.194622 0 0 1-103.197214-51.166618S978.748347-118.363385 917.310006-117.307414c-61.438342-0.959974-116.060866 51.262616-116.060866 51.262616a199.194622 199.194622 0 0 1-103.197214 51.166618C57.173229 5.089281 79.252634 522.707306 79.252634 522.707306 90.964317 763.660799 53.333333 842.666667 53.333333 842.666667c56.926463-105.597149 392.245409-89.565582 554.481029-102.429235a462.323517 462.323517 0 0 0 296.631991-153.595852h25.727306a462.323517 462.323517 0 0 0 296.631991 153.595852C1389.04127 753.101084 1724.360215 737.069518 1781.286679 842.666667c0 0-37.630984-78.909869-25.823303-319.959361zM414.379585 497.075998c-36.479015-0.767979-90.237563 25.631308-90.237563 25.631308-33.311101-91.48553 61.246346-267.736771 232.121733-281.560398 170.875387-13.919624 206.29843 0 206.298429 0C761.506213 545.074702 414.379585 497.075998 414.379585 497.075998z m1096.098405 25.631308s-53.758549-26.399287-90.237563-25.631308c0 0-347.126628 47.998704-348.182599-255.92909 0 0 35.519041-13.919624 206.394428 0 170.875387 13.823627 265.336836 190.074868 232.025734 281.560398z"  horiz-adv-x="1843" />
      
      <glyph glyph-name="icon_sy_zc_tgzq" unicode="&#59089;" d="M1156.114108 143.649381h-36.12093v469.620899h36.12093a108.362789 108.362789 0 0 0 108.362789-108.558038v-252.89532a108.362789 108.362789 0 0 0-108.362789-108.167541z m-150.341168-361.209298a59.892407 59.892407 0 0 0-43.93086 19.964135l-513.3077 316.351008h-14.64362v133.256944a144.483719 144.483719 0 1 1-288.967438 0v-123.885027A117.637082 117.637082 0 0 0 74.487508 237.563798v277.106106a117.148961 117.148961 0 0 0 117.148962 118.75976h257.190783L962.134952 949.780672a59.160226 59.160226 0 0 0 103.530395-39.586587v-1068.154468a59.550722 59.550722 0 0 0-59.306662-59.697158zM301.610058 340.020327a99.283745 99.283745 0 0 0 92.108371-90.351136v-288.674566a103.237522 103.237522 0 0 0-92.108371-90.644009 82.980514 82.980514 0 0 0-88.496278 90.644009v288.674566a80.930408 80.930408 0 0 0 88.54509 90.107076z"  horiz-adv-x="1331" />
      
      <glyph glyph-name="icon_sy_zc_jl" unicode="&#59090;" d="M673.79461 706.800303a476.604076 476.604076 0 1 0-471.066957-476.787122 476.604076 476.604076 0 0 0 471.341525 476.787122z m56.194892-308.293967a76.970529 76.970529 0 0 1-25.717858 17.526583 80.585672 80.585672 0 0 1-60.771023 0 77.01629 77.01629 0 0 1-25.717858-17.526583l-112.298263-112.023694a82.782215 82.782215 0 0 1-17.252015-25.855142 81.683944 81.683944 0 0 1-6.040493-30.614319 78.160323 78.160323 0 0 1 6.040493-30.202466 74.453656 74.453656 0 0 1 17.252015-25.855142l112.298263-112.435546a79.853491 79.853491 0 0 1 112.252501 0l112.298262 112.435546a74.499418 74.499418 0 0 1 17.252015 25.855142 78.114561 78.114561 0 0 1 6.040493 30.202466 81.683944 81.683944 0 0 1-6.040493 30.614319 82.736454 82.736454 0 0 1-17.252015 25.855142zM912.028006 1024.658383a79.350117 79.350117 0 0 0 79.350117-79.304355v-158.700234l-62.37267-62.37267a559.889666 559.889666 0 0 1-175.952249 56.057609V945.354028h-158.791756v-165.289863a559.386291 559.386291 0 0 1-175.906488-56.011847l-62.372669 62.372669V945.125221A79.350117 79.350117 0 0 0 435.561214 1024.658383z"  horiz-adv-x="1331" />
      
      <glyph glyph-name="icon_sy_zc_gjj" unicode="&#59078;" d="M663.796809-126.326927a232.833025 232.833025 0 0 0-45.086513 4.22309c-87.236972 17.415218-242.727121 64.351847-295.616295 103.324933 0.844618 41.98958 0 310.940078 0 322.121212 4.585069 0 9.934316 0.2011 16.087962 0.361979h4.987268c12.50839 0.442419 27.269095 0.925058 44.000575 0.925058a575.989246 575.989246 0 0 0 143.544838-16.087962 365.357609 365.357609 0 0 0 76.900456-28.636571 282.705706 282.705706 0 0 0 69.660874-50.23466h0.361979c24.936341 0 48.907403 0 73.280665 0.241319h81.203987l4.30353-0.241319a103.566253 103.566253 0 0 0 41.54716-9.572338 57.916662 57.916662 0 0 0 18.782696-14.760704 60.088537 60.088537 0 0 0 11.784432-35.956595 60.651615 60.651615 0 0 0-60.530956-60.611395h-308.969303a15.524883 15.524883 0 0 1-15.524883-15.484663 15.565103 15.565103 0 0 1 15.524883-15.524883h308.969303a91.701381 91.701381 0 0 1 91.580721 91.620941 88.483789 88.483789 0 0 1-1.126157 14.076967c40.461224 12.065971 110.846056 36.197914 152.835636 50.27488l5.711226 1.890335c15.605323 5.349247 27.912613 9.451677 33.865159 11.462673a134.817118 134.817118 0 0 0 40.219904 5.590567 130.875568 130.875568 0 0 0 40.863423-5.590567 141.533842 141.533842 0 0 0 26.384257-14.237846 86.432574 86.432574 0 0 0 23.810183-22.643806 95.683152 95.683152 0 0 0 10.014756-20.109952 38.651328 38.651328 0 0 0 1.850116-22.482926 29.802949 29.802949 0 0 0-16.087962-18.460936c-13.875867-7.400462-103.646693-54.256651-194.986095-101.474818-81.565965-42.07002-183.925621-94.516775-208.298883-105.215269a725.56707 725.56707 0 0 0-81.968164-30.969327 385.145801 385.145801 0 0 0-109.880778-17.817417z m-396.930234 63.225689h-176.967578a31.089986 31.089986 0 0 0-31.049766 31.009546v347.821731a31.089986 31.089986 0 0 0 31.049766 31.009546h176.967578a31.089986 31.089986 0 0 0 31.009546-31.009546v-347.821731a31.089986 31.089986 0 0 0-31.009546-31.009546z m431.559571 386.593718a279.246794 279.246794 0 0 0-109.357919 22.161167 279.970752 279.970752 0 0 0-47.741026 25.861399 287.210335 287.210335 0 0 0-41.627601 34.347798 287.049455 287.049455 0 0 0-34.307578 41.547161 281.539329 281.539329 0 0 0-25.941838 47.741026 279.809873 279.809873 0 0 0-22.080728 109.398139 279.407674 279.407674 0 0 0 22.080728 109.357919 280.010972 280.010972 0 0 0 25.941838 47.781246 289.14089 289.14089 0 0 0 34.307578 41.627601 288.135393 288.135393 0 0 0 41.627601 34.267358 288.778911 288.778911 0 0 0 47.741026 25.982058 279.488113 279.488113 0 0 0 109.357919 22.040508 280.252292 280.252292 0 0 0 109.398139-22.040508 287.170115 287.170115 0 0 0 47.700806-25.982058 285.963518 285.963518 0 0 0 41.587381-34.267358 284.636261 284.636261 0 0 0 34.267358-41.627601 277.879317 277.879317 0 0 0 25.901619-47.781246 278.804375 278.804375 0 0 0 22.161167-109.357919 279.206574 279.206574 0 0 0-22.161167-109.398139 277.999977 277.999977 0 0 0-25.901619-47.741026 290.709467 290.709467 0 0 0-34.267358-41.547161 285.561319 285.561319 0 0 0-41.587381-34.347798 283.067685 283.067685 0 0 0-47.700806-25.861399 279.689213 279.689213 0 0 0-109.398139-22.161167z m0 504.116278a222.657389 222.657389 0 0 1-86.834773-17.535878 228.408835 228.408835 0 0 1-37.927369-20.632811 228.127296 228.127296 0 0 1-32.940102-27.188655 227.081578 227.081578 0 0 1-27.228875-32.940102 226.116301 226.116301 0 0 1-20.592591-37.927369 222.456289 222.456289 0 0 1-17.495658-86.834773 222.41607 222.41607 0 0 1 17.495658-86.794553 224.507505 224.507505 0 0 1 20.592591-37.92737 223.381347 223.381347 0 0 1 27.228875-32.940101 228.288176 228.288176 0 0 1 32.940102-27.269095 223.059588 223.059588 0 0 1 37.927369-20.512151 222.17475 222.17475 0 0 1 86.834773-17.576098 221.973651 221.973651 0 0 1 86.794553 17.576098 222.576949 222.576949 0 0 1 37.967589 20.512151 225.794542 225.794542 0 0 1 33.020542 27.269095 224.668384 224.668384 0 0 1 27.188655 32.940101 231.063349 231.063349 0 0 1 20.592591 37.92737 221.852991 221.852991 0 0 1 17.495658 86.794553 221.812771 221.812771 0 0 1-17.495658 86.834773 231.586208 231.586208 0 0 1-20.592591 37.927369 228.449055 228.449055 0 0 1-27.188655 32.940102 224.909704 224.909704 0 0 1-33.020542 27.188655 224.829264 224.829264 0 0 1-37.967589 20.632811 222.33563 222.33563 0 0 1-86.794553 17.535878z m0-385.266461a160.879616 160.879616 0 0 0-63.145249 12.709489 164.660287 164.660287 0 0 0-27.510415 14.961805 165.263586 165.263586 0 0 0-24.131942 19.868632 166.952822 166.952822 0 0 0-19.828413 24.131943 165.142926 165.142926 0 0 0-15.002024 27.550634 162.287313 162.287313 0 0 0-12.70949 63.145249 162.287313 162.287313 0 0 0 12.70949 63.14525 160.557857 160.557857 0 0 0 15.002024 27.470194 165.826665 165.826665 0 0 0 19.828413 24.131943 168.280079 168.280079 0 0 0 24.131942 19.828412 162.568852 162.568852 0 0 0 27.510415 14.961805 161.563355 161.563355 0 0 0 63.145249 12.749709 161.161156 161.161156 0 0 0 63.06481-12.749709 158.024003 158.024003 0 0 0 27.631074-14.961805 161.885114 161.885114 0 0 0 24.131942-19.828412 159.592579 159.592579 0 0 0 19.828413-24.131943 158.587082 158.587082 0 0 0 14.921584-27.470194 160.155658 160.155658 0 0 0 12.74971-63.14525 160.155658 160.155658 0 0 0-12.74971-63.145249 162.689512 162.689512 0 0 0-14.921584-27.550634 159.833899 159.833899 0 0 0-19.828413-24.131943 156.294547 156.294547 0 0 0-24.131942-19.868632 161.362255 161.362255 0 0 0-27.631074-14.961805 160.557857 160.557857 0 0 0-63.06481-12.709489z"  horiz-adv-x="1331" />
      
      <glyph glyph-name="icon_sy_zc_hd" unicode="&#59079;" d="M363.7786 978.140483A183.338125 183.338125 0 0 0 476.924972 1018.556875a187.926459 187.926459 0 0 0 112.267755-35.291125 237.76358 237.76358 0 0 0 35.730433-32.606461 250.649966 250.649966 0 0 0 45.78572-72.681168 248.941543 248.941543 0 0 0 46.225027 72.681168 223.461644 223.461644 0 0 0 38.756782 34.558944 187.48715 187.48715 0 0 0 196.029262 9.762413 181.727327 181.727327 0 0 0 80.149414-89.472519 185.485856 185.485856 0 0 0-2.147731-145.362336h105.77575a164.740727 164.740727 0 0 0 157.028421-123.982651 186.559721 186.559721 0 0 0 4.881206-50.325242v-123.006409a162.153688 162.153688 0 0 0-9.323104-53.35159 165.082412 165.082412 0 0 0-66.530848-83.859131 166.839646 166.839646 0 0 0-88.496278-26.114456h-429.887877v394.596751h-65.798666v-394.059819h-428.862824a170.842236 170.842236 0 0 0-51.203858 8.053991A164.594291 164.594291 0 0 0 43.376191 462.685052v133.598629a179.67722 179.67722 0 0 0 5.613387 42.51531 164.935975 164.935975 0 0 0 157.028421 121.102739h105.141193a185.778728 185.778728 0 0 0-7.761119 129.400791 183.338125 183.338125 0 0 0 60.282903 88.78915z m93.621545-27.481194a116.856089 116.856089 0 0 1-95.427591-120.614618 124.080275 124.080275 0 0 1 25.96802-69.508384h233.712178a181.434454 181.434454 0 0 1-42.124814 141.164499 152.928207 152.928207 0 0 1-41.441445 35.535185 119.199068 119.199068 0 0 1-80.686348 13.325694z m375.41361-1.464362a120.370558 120.370558 0 0 1-59.453098-34.998252 182.264259 182.264259 0 0 1-53.693274-153.46514h233.712178a121.395611 121.395611 0 0 1 25.96802 83.859132 116.514405 116.514405 0 0 1-75.463456 100.650483 120.468182 120.468182 0 0 1-70.923934 4.100213zM142.806372 234.976759h495.003174v-470.645953h-300.243026c-13.911439 0-27.969315-0.390497-41.734317 0.439308a164.643103 164.643103 0 0 0-111.486762 54.620704 161.763191 161.763191 0 0 0-40.806888 93.767981c-1.025053 8.639736-0.536933 17.23066-0.732181 25.821584v295.947564z m560.801841 0h495.296047v-304.5873a165.0336 165.0336 0 0 0-161.079822-165.961029h-334.216225z"  horiz-adv-x="1331" />
      
      <glyph glyph-name="a-10" unicode="&#59080;" d="M512-128A512 512 0 1 0 512 896a512 512 0 0 0 0-1024zM512 828.984889a444.984889 444.984889 0 1 1 0-889.969778A444.984889 444.984889 0 0 1 512 828.984889z m-1.422222-858.737778a413.354667 413.354667 0 1 0 0 826.652445 413.354667 413.354667 0 0 0 0-826.652445zM765.269333 638.293333l-139.150222-139.320889a165.432889 165.432889 0 0 1-75.662222 44.828445l46.933333 189.383111a361.073778 361.073778 0 0 1-180.167111-1.706667l50.176-186.709333c-29.582222-7.281778-56.661333-22.641778-78.108444-44.316444L251.221333 633.457778a359.822222 359.822222 0 0 1-88.689777-156.842667l184.604444-49.322667a165.774222 165.774222 0 0 1 1.137778-90.510222l-183.808-52.963555a360.106667 360.106667 0 0 1 91.648-155.079111l135.964444 136.078222c21.731556-21.048889 48.924444-35.783111 78.563556-42.382222l-46.705778-188.529778a360.618667 360.618667 0 0 1 180.110222 1.706666l-50.858666 189.326223a165.717333 165.717333 0 0 1 74.524444 45.738666l142.222222-136.988444a359.879111 359.879111 0 0 1 88.689778 156.728889l-191.544889 51.2c7.566222 28.444444 7.395556 58.368-0.568889 86.755555l190.236445 54.840889a359.992889 359.992889 0 0 1-91.477334 155.136z m-250.766222-389.859555a137.955556 137.955556 0 0 0-21.617778 274.204444l22.755556 139.946667 26.168889-140.8a138.012444 138.012444 0 0 0-27.306667-273.351111z"  horiz-adv-x="1024" />
      
      <glyph glyph-name="tixian_1" unicode="&#59081;" d="M1028.292568-57.073963H162.349051a116.144159 116.144159 0 0 0-116.370268 115.26485v148.226377a198.472606 198.472606 0 0 1 128.554979 185.308094 198.472606 198.472606 0 0 1-128.554979 185.408587V726.490861a116.144159 116.144159 0 0 0 116.395392 115.214604h865.918393a116.194405 116.194405 0 0 0 82.152586-33.840836 114.13431 114.13431 0 0 0 34.041821-81.373768v-147.648545a197.869651 197.869651 0 0 1 0-374.083178v-146.618497a116.018544 116.018544 0 0 0-116.194407-115.189481zM345.571926 566.356128a49.994998 49.994998 0 0 1-49.919629-49.919629v-299.593143a49.994998 49.994998 0 0 1 49.919629-49.944752h499.321905a49.994998 49.994998 0 0 1 49.919629 49.944752V516.436499a49.994998 49.994998 0 0 1-49.919629 49.919629z m374.711257 48.311749a49.944752 49.944752 0 0 0 37.408317-16.907855h67.656548l-14.043821 56.275776a49.844259 49.844259 0 0 1-60.521583 36.378271l-371.545744-92.654047h262.159702l67.606302 15.601454a49.593029 49.593029 0 0 0 11.280279 1.306401z m53.261002-390.689556H416.921573a71.425015 71.425015 0 0 1-71.349647 71.324523V437.951888a71.450138 71.450138 0 0 1 71.349647 71.324523h356.748229a71.425015 71.425015 0 0 1 71.349645-71.324523v-142.674168a71.475261 71.475261 0 0 1-71.374769-71.299399z m-178.374114 209.225299a66.576254 66.576254 0 1 1 66.576254-66.576253 66.651623 66.651623 0 0 1-66.500884 66.576253z"  horiz-adv-x="1170" />
      
      <glyph glyph-name="icon_sy_zc_fenxiang" unicode="&#59082;" d="M816.605536-127.993858a170.262563 170.262563 0 0 0-130.955454 59.779561 174.288812 174.288812 0 0 0-40.26249 139.34916l-307.086787 158.047333c-21.837283-25.590566-50.635199-44.220497-82.708708-53.637825a171.286186 171.286186 0 0 0-98.267772 0.545932 172.923982 172.923982 0 0 0-82.162776 54.593206 176.609023 176.609023 0 0 0-23.679804 189.028978c14.535441 30.29923 37.53283 55.889795 66.126022 73.359622a171.627393 171.627393 0 0 0 188.346563-5.800528L481.94918 643.749359a176.267816 176.267816 0 0 0-12.010506 122.357024c10.8504 40.944905 35.963275 76.430489 70.834686 100.042052A171.286186 171.286186 0 0 0 766.516269 836.258654a175.653642 175.653642 0 0 0 0.204725-230.178608 171.286186 171.286186 0 0 0-225.74291-30.299229L363.686646 418.279416c15.900271-33.506581 20.677177-71.312376 13.648302-107.753342l302.924055-156.000088a173.196948 173.196948 0 0 0 68.719199 53.36486 171.354427 171.354427 0 0 0 166.850488-17.742793c24.021011-17.060377 43.401599-39.989524 56.299244-66.603712a176.540782 176.540782 0 0 0-8.871396-169.375423 173.811122 173.811122 0 0 0-62.850429-60.257252c-25.658807-14.330717-54.593207-21.905524-83.937056-21.837283z"  horiz-adv-x="1024" />
      
      <glyph glyph-name="icon_sy_zc_vip" unicode="&#59083;" d="M668.969634-183.733155h-519.848517a119.150256 119.150256 0 0 0-119.833625 118.174015v839.567558c0.634557 74.194342 41.246197 85.225869 65.359358 85.225869a110.412896 110.412896 0 0 0 46.420276-11.177963l163.959734-111.43795a76.342073 76.342073 0 0 1 33.192206-6.492005 83.712695 83.712695 0 0 1 25.187027 3.416845l278.570468 224.535509 3.563281 2.245356a42.27125 42.27125 0 0 0 23.966725 9.469541h1.073865a45.639283 45.639283 0 0 0 25.577523-11.763709l278.521656-224.535509a88.30103 88.30103 0 0 1 26.846637-3.416845 57.744676 57.744676 0 0 1 31.679032 6.492005l162.788244 111.43795a97.624135 97.624135 0 0 0 47.933451 14.301935 57.110119 57.110119 0 0 0 45.980967-21.623745 105.385253 105.385253 0 0 0 18.939082-66.726096v-839.567558a119.199068 119.199068 0 0 0-119.980061-118.174015z m-324.600248 492.123263a334.948406 334.948406 0 0 1 334.606722-334.655534 334.997218 334.997218 0 0 1 334.606721 334.655534 334.997218 334.997218 0 0 1-334.606721 334.557909 334.850782 334.850782 0 0 1-334.704346-334.557909z m291.212794-205.694052l-181.824951 305.75879a46.420276 46.420276 0 0 0 16.107983 63.455687 46.420276 46.420276 0 0 0 63.699747-16.205606l141.799056-238.691009 142.091928 238.691009a46.322652 46.322652 0 0 0 63.455687 16.205606 46.469088 46.469088 0 0 0 16.254419-63.455687l-181.922575-305.75879a46.566712 46.566712 0 0 0-40.025895-22.746423 46.176216 46.176216 0 0 0-39.879459 22.746423z"  horiz-adv-x="1331" />
      
      <glyph glyph-name="bell_1" unicode="&#59085;" d="M648.512 42.688a136.512 136.512 0 1 0-273.024 0h273.024z m204.8 68.224H109.248a40.96 40.96 0 1 0 0 81.92h61.44V452.288a341.312 341.312 0 0 0 273.408 334.464 68.288 68.288 0 1 0 135.808 0 341.504 341.504 0 0 0 273.408-334.464v-259.456h61.44a40.96 40.96 0 0 0 0-81.92h-61.44z"  horiz-adv-x="1024" />
      
      <glyph glyph-name="chongzhi_1" unicode="&#59086;" d="M204.078544-57.073963a166.64162 166.64162 0 0 0-166.440634 166.440634V675.264831a166.64162 166.64162 0 0 0 166.440634 166.440634h765.501306a166.616496 166.616496 0 0 0 166.440635-166.440634v-66.576255H712.821618a149.809133 149.809133 0 1 1 0-299.593143H1136.120977v-199.728762a166.616496 166.616496 0 0 0-166.440635-166.440634z m19.018198 186.137156v-67.581178a32.785665 32.785665 0 0 1 65.57133 0v67.581178a32.785665 32.785665 0 0 1-65.57133 0z m0 195.960295v-67.581178a32.785665 32.785665 0 1 1 65.57133 0v67.581178a32.785665 32.785665 0 0 1-65.57133 0z m0 195.960295v-67.581178a32.785665 32.785665 0 1 1 65.57133 0v67.581178a32.785665 32.785665 0 1 1-65.57133 0z m0 195.960295v-67.581178a32.785665 32.785665 0 0 1 65.57133 0v67.581178a32.785665 32.785665 0 0 1-65.57133 0z m438.674706-257.838526a74.892005 74.892005 0 1 0 74.892005-74.892006 74.892005 74.892005 0 0 0-74.892005 74.691021z"  horiz-adv-x="1170" />
      
      <glyph glyph-name="icon_sy_zc_lqjl" unicode="&#59087;" d="M354.493275-82.507986a443.555828 443.555828 0 0 0-132.564804 312.664172v4.676234a446.473111 446.473111 0 0 0 441.625272 446.816321h4.976543a446.601815 446.601815 0 0 0 4.804938-893.117828h-4.890741a443.856136 443.856136 0 0 0-313.951208 128.961101z m128.403384 360.37034a63.922834 63.922834 0 0 1 0.257408-90.693202l109.226534-109.569744a76.793204 76.793204 0 0 1 6.306481-5.705864l0.729321-0.858024 0.729321-0.772222a63.622526 63.622526 0 0 1 90.092585-2.445371l203.737946 193.312947a64.82376 64.82376 0 0 1 3.088889 90.993511 63.751229 63.751229 0 0 1-46.075923 20.378085 63.06481 63.06481 0 0 1-43.716354-17.546603l-158.991962-150.669124-73.361105 73.53271a63.837032 63.837032 0 0 1-45.389503 18.962344h-1.029629a63.622526 63.622526 0 0 1-45.604009-18.704936z m-116.862953 478.220023V904.692241a74.304932 74.304932 0 0 0 74.176228 74.476537h446.601815a74.304932 74.304932 0 0 0 74.304932-74.390735v-148.695666l-58.345674-58.431477a524.896562 524.896562 0 0 1-164.912332 52.511107v154.444431h-148.781469v-154.787641a525.54008 525.54008 0 0 1-164.783628-52.511107z"  horiz-adv-x="1331" />
      
      <glyph glyph-name="vivo_1" unicode="&#59088;" d="M673.169429-250.556875a634.556875 634.556875 0 1 0 634.556875 634.556875 630.798346 630.798346 0 0 0-634.556875-634.556875z m-8.053991 1019.53765a325.771737 325.771737 0 0 1-327.675408-309.859003 0.976241 0.976241 0 0 0 0-0.585745 1.610798 1.610798 0 0 1 0-0.683369v-265.049526a35.779245 35.779245 0 0 1 36.706675-34.705379h11.568459v-19.524827a118.857384 118.857384 0 0 1 121.542048-115.733412h62.674694a71.948987 71.948987 0 0 1 64.67599-39.488962h61.893701a67.848774 67.848774 0 1 1 0 135.551111h-61.893701a71.460867 71.460867 0 0 1-64.968862-40.221144h-62.381822a61.649641 61.649641 0 0 0-63.162815 59.892407v19.524827h49.59306a35.681621 35.681621 0 0 1 36.511427 34.705379v232.833561a35.681621 35.681621 0 0 1-36.511427 34.70538h-67.702337a232.150192 232.150192 0 0 0 73.90147 159.224964 241.766169 241.766169 0 0 0 331.531561 0 231.564447 231.564447 0 0 0 73.755034-159.224964h-67.458277a35.779245 35.779245 0 0 1-36.755487-34.70538v-232.833561a35.388749 35.388749 0 0 1 36.755487-34.705379h119.540752a35.632809 35.632809 0 0 1 36.462615 34.705379v265.049526a1.65961 1.65961 0 0 1-0.341685 0.976241v0.292873a325.820549 325.820549 0 0 1-328.21234 309.859003z m387.811874-367.506055a13.22807 13.22807 0 0 1-13.325694-13.081634v-158.541595a13.520943 13.520943 0 0 1 13.276882-13.081634 7.614682 7.614682 0 0 1 2.538228 0.292873 76.390885 76.390885 0 0 1 63.455687 73.999094v36.218554a76.390885 76.390885 0 0 1-63.455687 73.999094 10.885091 10.885091 0 0 1-2.440604 0.146436z m-775.672561 0a10.885091 10.885091 0 0 1-2.489416 0 76.244449 76.244449 0 0 1-63.455687-73.999094v-36.218554a76.390885 76.390885 0 0 1 63.455687-74.096718 12.203017 12.203017 0 0 1 2.489416 0 13.325694 13.325694 0 0 1 13.325694 13.081634v158.541595a13.22807 13.22807 0 0 1-13.22807 12.642325z"  horiz-adv-x="1331" />
      
      <glyph glyph-name="kefu1" unicode="&#59077;" d="M516.667511 88.136693c5.004179 0 10.095748 0.308016 15.221701 0.916884 49.157857 5.899573 90.900417 40.259787 106.306927 87.609664 1.163296 3.541463-0.515747 7.336502-3.906784 8.892339-3.352356 1.561567-7.409566 0.212029-9.306369-2.965546-0.179079-0.302285-19.710133-31.848813-95.745574-42.117909-11.382251-1.527184-22.457919-2.328025-32.956236-2.328025-53.270939 0.034383-77.00963 20.112702-77.22739 20.297512-2.680452 2.383897-6.772045 2.445501-9.519831 0.123206-2.775006-2.322294-3.413959-6.358015-1.521454-9.446767C431.202495 111.522956 472.816118 88.136693 516.667511 88.136693L516.667511 88.136693zM516.667511 88.136693M925.504492 559.366173c-0.670471 0-1.280772-0.123206-1.918292-0.123206C879.03425 752.120901 708.803342 896 504.703612 896c-209.712777 0-383.850469-151.824469-422.446972-352.685021C44.728879 536.561558 16.165088 503.576669 16.165088 463.6865l0-159.653796c0-44.746787 35.883101-81.032457 80.188637-81.032457 24.992242 0 47.051889 11.802012 61.726326 29.927655 35.457609-93.781437 107.642139-169.397117 198.995267-209.293016 0.21776 0.475633 1.946945 3.83945 4.028557 6.519902 1.438361 1.858122 3.050071 3.379576 4.432559 3.379576 1.432631 0 2.747786-0.520045 3.872401-1.313722-21.142764 15.741746-97.51344 96.656727-114.056026 209.572379-7.257707 49.699391 29.967769 98.487629 73.322038 106.557638 69.600064 12.959577 138.836239 27.722836 208.436303 40.437434 44.243933 8.070009 74.479604 32.340205 92.969135 72.750419 4.332275 9.446767 10.588573 28.546599 13.459565 56.091789 0.760727 4.095891 4.118813 7.240515 8.422436 7.240515 2.870992 0 5.310762-1.465581 6.928202-3.575846l1.919725 1.191949c27.432012-39.827133 81.833297-128.012715 89.645432-220.999042 8.971133-106.311225 3.966954-179.124679-77.406468-253.615744-0.095986-0.094554-0.219192-0.212029-0.336668-0.308016-1.130346-1.219169-1.802249-2.807956-1.802249-4.554333 0-2.289344 1.220601-4.24775 2.988468-5.439699 0.671904-0.275065 1.343808-0.643251 2.015711-0.918316 0.547265-0.123206 1.068742-0.302285 1.61744-0.302285 0.552995 0 1.04009 0.179079 1.527184 0.302285 1.158998 0.610301 2.254961 1.315155 3.385306 1.925456 82.293172 45.335598 145.423475 121.045832 174.596134 212.108136 11.809175-17.543995 30.298706-30.16977 51.776705-34.573676C874.366739 79.429164 734.623645-18.634406 561.493092-33.519439c-10.375111 25.73721-35.916051 44.014712-65.91104 44.014712-39.173853 0-70.938141-31.026483-70.938141-69.264828 0-38.239778 31.758557-69.230445 70.938141-69.230445 31.585209 0 58.037302 20.291781 67.220464 48.172207 200.406408 16.290443 361.057315 135.410819 394.595199 320.495243 29.626803 12.38366 50.432898 41.450304 50.432898 75.380729L1007.830614 477.593046C1007.830614 522.743835 970.969026 559.366173 925.504492 559.366173L925.504492 559.366173zM851.573585 512.961832C799.305488 654.551588 663.860285 755.698179 504.524533 755.698179c-158.669579 0-293.627687-100.289878-346.382879-240.96275-2.624579 3.211958-5.703303 5.959744-8.724721 8.741912C179.282985 694.900199 326.816725 825.23664 504.703612 825.23664c177.035904 0 324.10977-129.054237 354.955741-299.286578C856.610715 521.854171 853.801326 517.579201 851.573585 512.961832L851.573585 512.961832zM851.573585 512.961832M357.086779 43.634886c-0.005731 0-0.005731 0-0.011461 0C357.042368 43.563255 357.042368 43.551794 357.086779 43.634886L357.086779 43.634886zM357.086779 43.634886"  horiz-adv-x="1024" />
      
      <glyph glyph-name="search2" unicode="&#60016;" d="M1012.7872-62.5152l-296.448 296.448a404.48 404.48 0 1 1-54.272-54.272l296.448-296.448a38.4 38.4 0 0 1 54.272 54.272zM404.48 163.84a327.68 327.68 0 1 0 327.68 327.68 327.68 327.68 0 0 0-327.68-327.68z"  horiz-adv-x="1024" />
      
      <glyph glyph-name="shuaxin" unicode="&#59076;" d="M320.067666 609.562269c53.150524 53.15564 126.532835 86.077447 207.455889 86.077447 89.598644 0 172.483376-40.805358 227.39501-108.063181l-101.596909-101.603049 251.597225 0L904.918881 737.575828l-90.333378-90.361007C743.985562 729.792561 639.765919 779.506822 527.524578 779.506822c-104.055914 0-198.409862-42.322921-266.757506-110.670565-49.444109-49.455365-84.98865-112.251573-100.999298-182.862771l86.263689 0C260.052804 533.647275 285.750069 575.255928 320.067666 609.562269L320.067666 609.562269zM734.974327 194.655607c-53.151547-53.15564-126.533858-86.083587-207.450772-86.083587-89.599667 0-172.488493 40.810474-227.402173 108.069321l101.603049 101.596909L150.122089 318.23825 150.122089 66.641025l90.333378 90.333378c70.601988-82.555228 174.820608-132.270513 287.067065-132.270513 104.055914 0 198.402699 42.306548 266.750343 110.650099 49.360198 49.397037 84.866876 112.477724 100.920504 182.883237L808.689213 318.237227C794.560424 271.00346 768.983909 228.661096 734.974327 194.655607L734.974327 194.655607z"  horiz-adv-x="1024" />
      
      <glyph glyph-name="baxi1" unicode="&#59071;" d="M1036.8 384c0-282.325333-229.76-512-512-512-282.325333 0-512 229.674667-512 512s229.674667 512 512 512c282.24 0 512-229.674667 512-512M524.672 72.789333L36.48 384l488.192 311.210667L1013.12 384zM524.8 178.602667A205.354667 205.354667 0 0 0 319.402667 384 205.354667 205.354667 0 0 0 524.8 589.397333 205.312 205.312 0 0 0 730.197333 384a205.312 205.312 0 0 0-205.397333-205.397333zM336.768 466.944a216.405333 216.405333 0 0 1-10.922667-31.445333c13.312 2.816 220.330667 44.757333 394.965334-113.152a204.8 204.8 0 0 1 7.338666 32.384c-167.765333 144.298667-363.690667 116.906667-391.381333 112.213333M353.749333 450.986667a5.632 5.632 0 0 0-1.024-2.048 5.461333 5.461333 0 0 0-1.706666-1.536c-0.725333-0.213333-1.408-0.426667-2.218667-0.426667-0.896 0-1.621333 0.213333-2.261333 0.426667a5.632 5.632 0 0 0-1.792 1.536 6.485333 6.485333 0 0 0-1.024 2.048 7.722667 7.722667 0 0 0-0.426667 2.730666 7.253333 7.253333 0 0 0 0.426667 2.730667 7.893333 7.893333 0 0 0 1.024 2.218667 3.754667 3.754667 0 0 0 1.792 1.28 4.992 4.992 0 0 0 4.565333 0c0.597333-0.341333 1.152-0.682667 1.621333-1.365334 0.554667-0.597333 0.810667-1.28 1.024-2.133333a10.581333 10.581333 0 0 0 0-5.504m3.413334 6.826667a6.784 6.784 0 0 1-1.792 3.072 6.272 6.272 0 0 1-2.773334 1.962666 7.850667 7.850667 0 0 1-3.797333 0.768 7.722667 7.722667 0 0 1-3.754667-0.768 5.845333 5.845333 0 0 1-2.901333-1.962666 7.936 7.936 0 0 1-1.92-3.072 14.165333 14.165333 0 0 1 0-8.064c0.426667-1.152 1.109333-2.304 1.92-3.114667a8.106667 8.106667 0 0 1 2.901333-2.048c1.109333-0.426667 2.389333-0.682667 3.754667-0.682667a9.898667 9.898667 0 0 1 3.797333 0.682667 9.045333 9.045333 0 0 1 2.858667 2.048 7.296 7.296 0 0 1 1.706667 3.114667 11.562667 11.562667 0 0 1 0 8.064M376.362667 457.642667a2.474667 2.474667 0 0 0-1.152-0.554667 4.949333 4.949333 0 0 0-1.578667-0.256l-4.352-0.213333-0.341333 5.717333 4.778666 0.256c1.024 0 1.962667-0.128 2.56-0.597333 0.554667-0.426667 0.938667-1.152 0.938667-2.090667 0-0.554667 0-0.853333-0.128-1.322667a1.962667 1.962667 0 0 0-0.725333-0.938666z m3.925333-5.973334a13.952 13.952 0 0 1-1.408 2.304 4.48 4.48 0 0 1-1.792 1.152v0.085334a6.656 6.656 0 0 1 2.858667 1.706666 5.418667 5.418667 0 0 1 0.896 3.413334c-0.085333 1.237333-0.298667 2.389333-1.024 3.157333a3.029333 3.029333 0 0 1-1.152 1.024c-0.469333 0.341333-0.853333 0.469333-1.365334 0.725333-0.426667 0.085333-1.024 0.213333-1.706666 0.213334h-1.962667l-8.533333-0.426667 0.938666-19.114667 3.669334 0.213334-0.341334 7.509333 3.584 0.256c0.426667 0 0.768 0 1.152-0.170667 0.341333-0.085333 0.64-0.298667 1.024-0.554666 0.341333-0.213333 0.554667-0.597333 0.938667-0.853334 0.213333-0.298667 0.298667-0.64 0.554667-1.109333l1.792-4.693333 3.925333 0.256-2.048 4.906666zM401.536 452.352a3.669333 3.669333 0 0 0-1.792-1.28 7.424 7.424 0 0 0-2.986667-0.426667h-2.645333v12.8h2.645333c1.109333 0 2.133333-0.213333 2.986667-0.426666a4.437333 4.437333 0 0 0 1.792-1.28c0.938667-1.024 1.408-2.56 1.408-4.565334 0-2.090667-0.469333-3.669333-1.408-4.821333m2.645333 11.946667a10.965333 10.965333 0 0 1-7.424 2.304H390.4v-19.072H396.8c6.613333 0 9.941333 3.2 9.941333 9.642666a9.941333 9.941333 0 0 1-2.517333 7.125334M419.84 450.645333v5.12l9.728-0.042666 0.085333 3.072-9.813333 0.128 0.042667 4.565333 10.496-0.085333 0.128 3.114666-14.250667 0.085334-0.128-19.072 14.506667-0.128 0.042666 3.114666zM454.613333 464.896l-5.290666-14.592-3.797334 15.018667-5.12 0.256-1.066666-19.072 3.413333-0.128 0.512 7.808 0.213333 7.552 4.096-15.573334 3.370667-0.213333 5.376 15.146667-0.426667-7.466667-0.341333-7.936 3.413333-0.128 0.938667 19.072zM496.213333 454.528l0.298667 2.901333-12.757333 1.792-2.346667-17.194666 13.056-1.962667 0.469333 2.730667-9.856 1.493333 0.64 4.608 8.746667-1.28 0.469333 2.773333-8.832 1.28 0.554667 4.266667zM532.266667 444.416a4.522667 4.522667 0 0 0-0.597334-1.28c-0.213333-0.341333-0.554667-0.512-0.768-0.682667-0.341333-0.213333-0.725333-0.213333-1.194666-0.213333-0.426667 0-1.024 0-1.578667 0.213333-0.213333 0-0.426667 0-0.682667 0.170667l-0.725333 0.170667-2.389333 0.682666 1.706666 5.802667 2.346667-0.725333c0.682667-0.213333 1.322667-0.341333 1.792-0.554667 0.597333-0.213333 1.066667-0.426667 1.28-0.597333l0.597333-0.554667c0.085333-0.256 0.213333-0.469333 0.213334-0.682667 0.085333-0.341333 0.085333-0.597333 0.085333-0.810666 0-0.384 0-0.682667-0.085333-0.938667m3.669333 2.432a8.746667 8.746667 0 0 1-0.682667 1.578667c-0.341333 0.384-0.768 0.682667-1.28 1.066666-0.341333 0.341333-0.896 0.554667-1.450666 0.853334l-2.133334 0.725333-6.954666 2.133333-5.546667-18.346666 3.584-0.981334 2.048 6.784 3.413333-1.066666c1.066667-0.341333 2.218667-0.469333 3.157334-0.469334a6.912 6.912 0 0 1 2.645333 0.426667 5.12 5.12 0 0 1 1.834667 1.408 6.314667 6.314667 0 0 1 1.28 2.432 5.717333 5.717333 0 0 1 0.341333 1.834667c0 0.426667-0.128 1.152-0.256 1.621333M557.226667 437.418667a3.413333 3.413333 0 0 0-0.597334-1.28c-0.384-0.213333-0.597333-0.426667-0.938666-0.554667-0.426667-0.128-0.768-0.128-1.28-0.128a5.930667 5.930667 0 0 0-1.578667 0.341333l-4.266667 1.536 1.834667 5.248 4.522667-1.493333c1.024-0.298667 1.792-0.768 2.176-1.408a2.56 2.56 0 0 0 0.085333-2.261333m3.84 2.432a4.138667 4.138667 0 0 1-0.725333 1.322666c-0.341333 0.426667-0.682667 0.853333-1.152 1.066667-0.341333 0.341333-0.938667 0.597333-1.408 0.810667a10.666667 10.666667 0 0 1-1.92 0.810666l-8.021334 2.645334-6.101333-18.090667 3.541333-1.109333 2.304 7.125333 3.456-1.152a2.730667 2.730667 0 0 0 1.024-0.554667c0.341333-0.256 0.554667-0.597333 0.810667-0.810666 0.213333-0.341333 0.426667-0.682667 0.426667-1.152a3.541333 3.541333 0 0 0 0.256-1.28l0.085333-5.034667 3.669333-1.28-0.170666 5.418667a6.442667 6.442667 0 0 1-0.426667 2.645333c-0.256 0.768-0.725333 1.28-1.450667 1.706667l0.170667 0.085333a5.546667 5.546667 0 0 1 3.285333 0.725333 4.821333 4.821333 0 0 1 2.133334 2.645334 6.826667 6.826667 0 0 1 0.213333 3.413333M581.674667 424.917333a6.997333 6.997333 0 0 0-2.901334-4.138666 4.266667 4.266667 0 0 0-2.048-0.853334 4.138667 4.138667 0 0 0-2.304 0.384 4.266667 4.266667 0 0 0-1.92 1.152 4.309333 4.309333 0 0 0-1.152 1.792 9.002667 9.002667 0 0 0-0.384 2.432c0.128 0.938667 0.256 1.877333 0.597334 2.816a6.826667 6.826667 0 0 0 1.28 2.346667 5.674667 5.674667 0 0 0 1.706666 1.621333 4.266667 4.266667 0 0 0 2.048 0.810667 3.968 3.968 0 0 0 2.346667-0.341333 4.266667 4.266667 0 0 0 1.877333-1.152 4.010667 4.010667 0 0 0 1.194667-1.962667 4.522667 4.522667 0 0 0 0.213333-2.261333 7.125333 7.125333 0 0 0-0.554666-2.645334m3.541333 6.314667a6.144 6.144 0 0 1-1.962667 2.730667 8.448 8.448 0 0 1-3.285333 1.962666 8.661333 8.661333 0 0 1-3.84 0.554667 8.362667 8.362667 0 0 1-3.413333-0.853333 9.258667 9.258667 0 0 1-2.773334-2.346667 11.52 11.52 0 0 1-1.962666-3.669333 11.690667 11.690667 0 0 1-0.682667-4.010667c0-1.28 0.213333-2.432 0.682667-3.584 0.469333-1.024 1.194667-1.962667 2.048-2.730667a9.813333 9.813333 0 0 1 3.370666-1.962666c1.408-0.469333 2.645333-0.725333 3.84-0.554667a7.936 7.936 0 0 1 6.144 3.285333 9.984 9.984 0 0 1 1.834667 3.584 12.8 12.8 0 0 1 0.853333 4.010667 13.397333 13.397333 0 0 1-0.853333 3.584M609.450667 417.066667a7.850667 7.850667 0 0 1-0.426667 5.333333 9.088 9.088 0 0 1-1.834667 2.261333c-0.853333 0.554667-1.706667 1.194667-2.816 1.578667a8.96 8.96 0 0 1-7.338666 0.256 8.32 8.32 0 0 1-2.858667-2.048 13.610667 13.610667 0 0 1-3.2-7.466667 8.448 8.448 0 0 1 2.261333-6.570666 10.325333 10.325333 0 0 1 6.442667-2.986667c1.024-0.128 1.962667 0 2.901333 0.341333l-0.256-1.706666 2.218667-1.024 3.968 9.173333-7.210667 3.2-1.152-2.602667 3.925334-1.706666-0.938667-2.218667a5.717333 5.717333 0 0 0-2.517333-0.597333 8.533333 8.533333 0 0 0-2.730667 0.853333 4.181333 4.181333 0 0 0-1.962667 1.28 3.328 3.328 0 0 0-1.024 1.92c-0.256 0.682667-0.384 1.365333-0.256 2.304a10.794667 10.794667 0 0 0 2.261334 5.290667c0.597333 0.64 1.28 1.109333 1.834666 1.493333a4.864 4.864 0 0 0 4.394667 0.085333c0.682667-0.341333 1.152-0.682667 1.621333-1.024s0.810667-0.682667 1.024-1.152c0.256-0.341333 0.469333-0.810667 0.469334-1.365333 0-0.426667 0-0.938667-0.128-1.408l3.328-1.493333zM628.309333 408.021333c-0.256-0.469333-0.554667-0.810667-0.810666-1.152-0.341333-0.256-0.682667-0.341333-1.024-0.469333-0.341333 0-0.853333 0-1.28 0.128a4.650667 4.650667 0 0 0-1.493334 0.682667l-3.925333 2.048 2.816 5.12 4.096-2.346667c0.896-0.554667 1.621333-1.152 1.834667-1.834667 0.341333-0.682667 0.256-1.408-0.213334-2.176m3.669334 3.114667c-0.085333 0.426667-0.426667 0.768-0.810667 1.28-0.426667 0.298667-0.853333 0.682667-1.365333 0.981333l-1.578667 1.194667-7.509333 3.968-9.173334-16.725333 3.2-1.706667 3.712 6.485333 3.072-1.706666a1.621333 1.621333 0 0 0 0.896-0.682667 2.56 2.56 0 0 0 0.64-1.066667c0.170667-0.298667 0.170667-0.64 0.298667-1.109333 0-0.384 0-0.853333-0.128-1.28l-0.810667-4.949333 3.456-1.834667 0.810667 5.290667a8.362667 8.362667 0 0 1 0 2.645333 5.546667 5.546667 0 0 1-1.024 2.090667c1.28-0.384 2.56-0.384 3.584 0a4.949333 4.949333 0 0 1 2.389333 2.389333 5.290667 5.290667 0 0 1 0.810667 3.242667c0 0.554667-0.256 1.024-0.469333 1.493333M654.506667 397.098667l1.621333 2.730666-12.373333 7.04-9.386667-16.64 12.672-7.125333 1.493333 2.645333-9.386666 5.376 2.517333 4.352 8.448-4.821333 1.493333 2.773333-8.448 4.821334 2.261334 4.010666zM676.309333 385.621333a5.12 5.12 0 0 1-1.365333 2.261334 12.672 12.672 0 0 1-2.304 2.133333 11.306667 11.306667 0 0 1-2.645333 1.237333 5.376 5.376 0 0 1-2.432 0.298667 3.626667 3.626667 0 0 1-2.048-0.426667 3.285333 3.285333 0 0 1-1.706667-1.28l-0.341333-0.554666c-0.128-0.256-0.213333-0.341333-0.213334-0.554667a3.626667 3.626667 0 0 1-0.597333-2.133333c0-0.512 0.213333-1.237333 0.597333-1.92 0.213333-0.554667 0.64-1.28 1.28-1.962667 0.682667-0.682667 1.237333-1.493333 2.005334-2.176 0.469333-0.554667 0.810667-1.109333 1.28-1.493333l0.853333-1.28c0.042667-0.298667 0.213333-0.682667 0.213333-1.024a1.365333 1.365333 0 0 0-0.384-0.896c-0.213333-0.341333-0.554667-0.725333-0.938666-0.810667a1.28 1.28 0 0 0-1.109334-0.213333c-0.384 0-0.853333 0-1.408 0.213333-0.426667 0.256-1.024 0.469333-1.493333 0.810667-0.426667 0.341333-1.024 0.768-1.365333 1.28-0.341333 0.426667-0.682667 0.810667-0.810667 1.365333-0.213333 0.426667-0.341333 0.938667-0.213333 1.493333 0 0.554667 0.128 1.024 0.426666 1.621334l-2.858666 1.962666a6.826667 6.826667 0 0 1-0.853334-5.418666c0.512-1.706667 1.92-3.328 4.053334-4.821334a19.541333 19.541333 0 0 1 2.816-1.408c0.853333-0.341333 1.792-0.426667 2.56-0.341333a5.461333 5.461333 0 0 1 2.432 0.554667 7.04 7.04 0 0 1 1.877333 1.877333 2.858667 2.858667 0 0 1 0.810667 1.578667c0.128 0.597333 0.213333 1.152 0.128 1.621333-0.128 0.469333-0.256 1.024-0.469334 1.493333-0.213333 0.554667-0.597333 1.024-0.938666 1.493334-0.298667 0.554667-0.768 1.024-1.28 1.493333l-1.365334 1.493333c-0.426667 0.597333-0.938667 1.024-1.28 1.408-0.298667 0.426667-0.554667 0.768-0.682666 1.109334-0.213333 0.384-0.213333 0.682667-0.213334 0.938666 0 0.341333 0.128 0.597333 0.213334 0.938667a1.877333 1.877333 0 0 0 0.810666 0.554667c0.213333 0.213333 0.597333 0.213333 1.066667 0.213333 0.298667 0 0.768 0 1.28-0.213333 0.426667-0.128 0.896-0.341333 1.28-0.725334 2.133333-1.322667 2.688-2.986667 1.749333-4.693333l3.029334-1.962667a6.144 6.144 0 0 1 0.554666 4.821334M697.472 371.712a6.058667 6.058667 0 0 1-1.408 2.261333 9.813333 9.813333 0 0 1-4.949333 3.370667 8.448 8.448 0 0 1-2.389334 0.341333 3.626667 3.626667 0 0 1-2.048-0.469333 4.949333 4.949333 0 0 1-1.706666-1.365333 5.973333 5.973333 0 0 1-0.341334-0.554667c-0.170667-0.128-0.256-0.384-0.426666-0.597333a2.816 2.816 0 0 1-0.298667-1.962667c0-0.682667 0.085333-1.365333 0.469333-1.962667a10.325333 10.325333 0 0 1 1.365334-2.048l1.962666-2.176 1.237334-1.493333c0.384-0.426667 0.597333-0.810667 0.853333-1.152 0.085333-0.341333 0.213333-0.810667 0.213333-1.024a1.834667 1.834667 0 0 0-0.384-1.024 2.730667 2.730667 0 0 0-0.768-0.853333c-0.469333-0.085333-0.810667-0.170667-1.28-0.170667a2.645333 2.645333 0 0 0-1.28 0.298667c-0.554667 0.128-1.024 0.469333-1.578666 0.810666a8.405333 8.405333 0 0 0-1.408 1.152 10.624 10.624 0 0 0-0.810667 1.408c-0.213333 0.426667-0.213333 1.024-0.213333 1.493334 0 0.554667 0.213333 1.109333 0.426666 1.578666l-2.858666 1.962667a6.272 6.272 0 0 1-0.768-5.418667 8.96 8.96 0 0 1 4.138666-4.693333c0.768-0.682667 1.706667-1.152 2.730667-1.408 0.938667-0.298667 1.706667-0.426667 2.645333-0.426667 0.810667 0.128 1.664 0.213333 2.304 0.682667a4.693333 4.693333 0 0 1 1.834667 1.706667 3.797333 3.797333 0 0 1 0.810667 1.706666 2.816 2.816 0 0 1 0.128 1.664c0 0.426667-0.213333 0.896-0.426667 1.493334a13.056 13.056 0 0 1-2.218667 2.858666 5.973333 5.973333 0 0 1-1.408 1.493334 94.122667 94.122667 0 0 1-1.28 1.493333 3.669333 3.669333 0 0 0-0.64 1.109333c-0.256 0.384-0.341333 0.597333-0.256 0.938667 0 0.213333 0.128 0.597333 0.256 0.810667 0.213333 0.341333 0.426667 0.597333 0.853334 0.682666a2.56 2.56 0 0 0 0.981333 0.213334c0.469333 0 0.810667-0.085333 1.28-0.213334 0.426667-0.085333 0.896-0.341333 1.322667-0.682666 2.133333-1.493333 2.645333-2.986667 1.706666-4.693334l3.072-1.962666a6.144 6.144 0 0 1 0.554667 4.821333M714.368 352.085333a9.813333 9.813333 0 0 0-1.28-2.56 6.314667 6.314667 0 0 0-1.706667-2.133333 6.4 6.4 0 0 0-1.962666-1.28c-0.810667-0.256-1.493333-0.384-2.176-0.256a4.48 4.48 0 0 0-2.304 0.810667 6.144 6.144 0 0 0-1.621334 1.493333 9.216 9.216 0 0 0-0.682666 2.090667 7.936 7.936 0 0 0 1.408 4.949333 7.338667 7.338667 0 0 0 1.706666 2.133333c0.682667 0.597333 1.365333 0.938667 1.962667 1.28 0.768 0.256 1.450667 0.341333 2.261333 0.256a6.784 6.784 0 0 0 2.176-0.853333c0.725333-0.426667 1.28-0.853333 1.621334-1.578667 0.469333-0.597333 0.682667-1.28 0.682666-2.090666 0.128-0.64 0-1.493333-0.085333-2.261334m3.584 2.858667a6.570667 6.570667 0 0 1-1.408 3.2 8.448 8.448 0 0 1-2.773333 2.56 8.234667 8.234667 0 0 1-3.584 1.365333 6.954667 6.954667 0 0 1-3.498667-0.128 10.88 10.88 0 0 1-3.242667-1.578666 14.848 14.848 0 0 1-4.266666-6.869334 7.850667 7.850667 0 0 1 1.408-6.869333 8.405333 8.405333 0 0 1 2.858666-2.688 10.026667 10.026667 0 0 1 3.541334-1.408 9.6 9.6 0 0 1 3.413333 0.213333 7.509333 7.509333 0 0 1 3.242667 1.706667 16.554667 16.554667 0 0 1 2.645333 2.986667 13.568 13.568 0 0 1 1.664 3.84 12.16 12.16 0 0 1 0 3.669333M588.8 456.618667l1.92-5.973334h6.229333l-5.034666-3.84 1.962666-5.973333-5.12 3.84-5.034666-3.84 1.962666 5.973333-5.12 3.84h6.272zM580.736 401.493333l1.493333-4.693333h4.949334l-4.010667-2.944 1.578667-4.693333-4.010667 2.901333-4.010667-2.901333 1.493334 4.693333-3.882667 2.901333h4.906667zM524.8 358.4l1.706667-5.162667h5.418666l-4.394666-3.242666 1.664-5.290667-4.394667 3.2-4.48-3.2 1.706667 5.290667-4.352 3.242666h5.418666zM446.72 383.786667l1.792-5.546667h5.76l-4.608-3.328 1.706667-5.546667-4.693334 3.498667-4.608-3.456 1.792 5.546667-4.778666 3.328h5.888zM375.125333 343.552l1.962667-6.101333h6.4l-5.248-3.754667 2.048-6.101333-5.162667 3.797333-5.333333-3.797333 2.133333 6.101333-5.333333 3.754667h6.485333zM349.610667 324.266667l1.834666-5.504h5.76l-4.736-3.328 1.877334-5.546667-4.693334 3.328-4.650666-3.328 1.706666 5.546667-4.693333 3.328h5.888zM442.453333 283.264l1.92-5.973333h6.186667l-4.992-3.669334 1.92-5.845333-5.034667 3.669333-5.12-3.669333 1.962667 5.845333-4.992 3.669334h6.186667zM411.989333 299.946667l1.493334-4.394667h4.608l-3.84-2.773333 1.493333-4.437334-3.754667 2.730667-3.754666-2.730667 1.493333 4.437334-3.84 2.773333h4.693333zM417.834667 321.28l1.664-5.077333h5.248l-4.266667-3.072 1.621333-4.949334-4.266666 3.072-4.224-3.072 1.578666 4.949334-4.138666 3.072h5.205333zM395.349333 352.298667l1.152-3.584h3.669334l-2.986667-2.048 1.109333-3.541334-2.986666 2.133334-2.986667-2.133334 1.194667 3.541334-2.986667 2.048h3.626667zM356.864 431.232l2.133333-6.826667h7.04l-5.589333-4.096 2.133333-6.784-5.717333 4.266667-5.76-4.266667 2.133333 6.826667-5.717333 4.053333h7.125333zM548.693333 339.626667l1.706667-5.12h5.546667l-4.522667-3.242667 1.706667-5.290667-4.437334 3.2-4.352-3.2 1.621334 5.290667-4.394667 3.242667h5.504zM525.013333 300.032l1.962667-5.973333h6.357333l-5.205333-3.669334 1.962667-6.101333-5.077334 3.797333-5.12-3.797333 1.92 6.101333-5.077333 3.669334h6.357333zM586.709333 253.525333l1.877334-5.76h5.973333l-4.864-3.584 1.877333-5.717333-4.864 3.541333-4.906666-3.541333 1.792 5.717333-4.778667 3.584h5.973333zM668.842667 319.914667l1.962666-5.717334h5.973334l-4.821334-3.584 1.834667-5.76-4.949333 3.541334-4.821334-3.541334 1.834667 5.76-4.821333 3.584h5.973333zM677.546667 300.8l1.706666-4.906667h5.205334l-4.224-3.114666 1.578666-5.034667-4.266666 3.072-4.181334-3.072 1.578667 5.034667-4.266667 3.114666h5.290667zM697.813333 316.586667l1.493334-4.608h4.821333l-3.882667-2.773334 1.450667-4.608-3.882667 2.901334-3.925333-2.901334 1.493333 4.608-3.925333 2.773334h4.864zM664.96 284.288l1.706667-4.949333h5.162666l-4.266666-3.114667 1.749333-4.992-4.352 3.072-4.266667-3.072 1.706667 4.992-4.352 3.114667h5.290667zM628.053333 258.218667l1.706667-5.418667h5.76l-4.565333-3.328 1.706666-5.418667-4.608 3.370667-4.608-3.370667 1.706667 5.418667-4.522667 3.328h5.717334zM603.946667 270.378667l1.408-4.608h4.778666l-3.754666-2.730667 1.322666-4.608-3.754666 2.901333-3.925334-2.901333 1.493334 4.608-3.882667 2.730667h4.821333zM626.944 276.821333l1.365333-4.010666h4.096l-3.285333-2.389334 1.28-4.053333-3.456 2.389333-3.370667-2.389333 1.28 4.053333-3.413333 2.389334h4.266667zM648.405333 272.810667l1.408-4.010667h4.096l-3.328-2.56 1.28-4.010667-3.456 2.56-3.370666-2.56 1.322666 4.010667-3.413333 2.56h4.224zM627.498667 235.477333l1.408-4.010666h4.224l-3.413334-2.56 1.237334-4.010667-3.456 2.56-3.285334-2.56 1.237334 4.010667-3.413334 2.56h4.224zM570.026667 275.456l1.450666-4.608h4.778667l-3.925333-2.773333 1.493333-4.608-3.754667 2.816-3.925333-2.816 1.493333 4.608-3.925333 2.773333h4.864zM525.013333 226.048l0.725334-2.261333h2.389333l-1.92-1.408 0.768-2.304-1.962667 1.365333-1.92-1.365333 0.682667 2.304-1.962667 1.408h2.432zM503.765333 339.072l1.493334-4.693333h4.949333l-4.010667-2.858667 1.578667-4.608-4.010667 2.858667-3.882666-2.858667 1.493333 4.608-4.010667 2.858667h4.906667zM514.474667 322.986667l1.152-3.413334h3.541333l-2.901333-2.048 1.066666-3.498666-2.858666 2.176-2.858667-2.176 1.109333 3.498666-2.858666 2.048h3.584z"  horiz-adv-x="1066" />
      
      <glyph glyph-name="menu6" unicode="&#59242;" d="M42.666667 21.959111h938.666666a42.666667 42.666667 0 0 0 0-85.333333H42.666667a42.666667 42.666667 0 1 0 0 85.333333zM42.666667 430.535111h938.666666a42.666667 42.666667 0 0 0 0-85.333333H42.666667a42.666667 42.666667 0 0 0 0 85.333333zM42.666667 839.111111h938.666666a42.666667 42.666667 0 0 0 0-85.333333H42.666667a42.666667 42.666667 0 0 0 0 85.333333z"  horiz-adv-x="1024" />
      
      <glyph glyph-name="arrow-back-sharp" unicode="&#59730;" d="M488 28.2L132.2 384 488 739.8l67.8-67.8-240-240H872v-96H315.8l240-240z"  horiz-adv-x="1024" />
      
      <glyph glyph-name="icon_zc" unicode="&#59070;" d="M399.825455 896h34.443636c71.447273-8.494545 143.941818-44.450909 178.850909-109.963636 25.949091-52.596364 36.072727-111.709091 38.749091-170.007273-1.629091-32.349091 27.694545-58.647273 18.501818-91.578182-0.116364-40.378182-45.149091-56.32-53.061818-93.672727-10.356364-33.512727-39.098182-57.134545-49.687273-90.763637-14.08-38.283636-44.450909-68.072727-57.134545-107.054545-29.207273-74.705455-20.014545-161.396364 17.687272-231.330909 27.810909-50.734545 77.963636-82.385455 126.254546-111.127273-75.054545-12.450909-151.04-16.872727-227.025455-18.501818h-55.156363c-116.130909 13.265455-237.614545 9.192727-348.858182 48.058182-25.716364 48.872727-17.454545 108.334545-10.705455 161.163636 4.421818 47.010909 50.036364 73.192727 90.414546 86.341818 58.88 20.130909 129.512727 29.090909 168.96 82.967273 21.178182 36.770909 17.338182 92.509091-19.316364 118.574546-29.789091 21.76-43.52 55.970909-53.527273 90.181818-16.407273 15.010909-36.072727 30.021818-39.796363 53.643636-12.218182 35.84 16.407273 67.84 16.290909 103.447273 5.585455 70.749091 13.032727 148.712727 62.72 203.985454C278.109091 867.723636 338.734545 893.207273 399.825455 896zM672.698182 341.294545c66.327273 41.541818 153.949091 44.101818 223.767273 9.309091 68.421818-33.28 114.618182-102.283636 127.534545-176.407272v-52.48c-9.076364-67.607273-43.869091-134.050909-102.283636-171.636364-71.796364-48.523636-171.52-52.596364-245.76-7.214545-77.149091 43.054545-124.16 134.050909-114.618182 222.021818 6.167273 71.912727 48.174545 140.567273 111.36 176.407272m80.64-161.163636c-28.16-0.232727-56.436364 1.978182-84.48-0.814545-27.112727-5.469091-37.818182-44.916364-16.407273-62.952728 32.581818-10.007273 67.374545-4.770909 101.003636-5.701818 0.581818-32.930909-2.443636-66.094545 2.56-98.792727 12.101818-29.556364 55.156364-24.669091 65.629091 3.84 3.490909 31.418182 1.163636 63.185455 1.512728 94.72 32.581818 1.28 65.047273-1.629091 97.629091-0.232727 33.163636 8.494545 32.232727 57.367273 1.163636 67.607272-32.465455 6.283636-65.978182 1.047273-98.792727 2.56-3.374545 41.541818 18.967273 117.527273-44.683637 119.621819-41.425455-25.6-19.898182-79.709091-25.134545-119.854546z"  horiz-adv-x="1024" />
      
      <glyph glyph-name="Group35" unicode="&#59072;" d="M593.624615 814.670769C712.861538 836.430769 836.430769 741.710769 846.769231 621.095385c16.935385-121.107692-86.350769-238.867692-207.458462-243.003077-118.744615-9.550769-230.695385 93.735385-232.073846 212.48-6.301538 107.913846 80.344615 208.836923 186.387692 224.098461zM118.153846 0.098462c23.926154 171.126154 153.206154 317.538462 312.516923 379.470769 103.187692-93.636923 273.230769-100.824615 380.258462-9.846154 145.92-60.553846 256.787692-196.135385 290.363077-350.129231 11.618462-52.086154-32.590769-108.603077-86.449231-107.716923-265.944615-1.28-531.987692 0-798.030769-0.590769-49.92-4.430769-99.052308 38.104615-98.658462 88.812308m634.190769 224.196923c-55.532308-53.267692-110.670769-107.323077-166.006153-160.984616-28.553846 27.864615-53.464615 59.569231-83.692308 85.661539-31.704615 21.563077-75.618462-22.843077-52.873846-53.956923 26.978462-32 58.978462-59.175385 87.532307-89.796923 17.821538-21.169231 46.375385-44.603077 74.633847-26.584616 65.870769 63.015385 131.643077 126.72 194.264615 192.886154 26.289231 31.507692-22.646154 79.36-53.858462 52.775385z"  horiz-adv-x="1181" />
      
      <glyph glyph-name="huodong1" unicode="&#59075;" d="M222.603636 896h17.92c90.414545-20.945455 179.432727-48.290909 270.429091-66.327273C602.530909 847.127273 692.130909 874.705455 782.894545 896h14.196364c44.218182-16.872727 27.810909-71.68 30.603636-107.869091 41.658182-0.232727 83.432727 2.094545 124.974546-1.163636 37.236364-1.512727 66.327273-35.025455 71.330909-70.516364v-15.127273c-3.258182-40.96-39.68-74.589091-81.105455-72.727272-287.767273-0.232727-575.650909-0.698182-863.418181 0.232727-38.981818-2.327273-69.352727 28.392727-79.476364 63.883636v29.556364c8.96 29.556364 30.254545 58.181818 62.603636 63.418182 44.218182 5.701818 89.018182 1.512727 133.585455 2.909091 2.56 36.189091-11.52 85.061818 26.414545 107.403636zM78.894545 489.425455c-1.745455 32.814545 26.996364 62.021818 60.16 58.647272 248.552727 0.581818 497.221818 0.349091 745.774546 0.232728 33.047273 3.490909 63.069091-26.298182 60.043636-59.345455 1.047273-167.214545 0.814545-334.661818 0.116364-501.876364 0.814545-56.785455-45.265455-104.843636-99.607273-115.083636H179.083636c-55.505455 9.658182-100.189091 59.461818-99.956363 116.48-1.163636 166.865455-0.698182 333.963636-0.232728 500.945455m361.658182-172.218182c-38.632727-15.941818-87.854545-3.374545-120.669091-30.836364-23.04-62.952727 94.021818-79.476364 69.12-146.269091-3.607273-33.047273-30.370909-92.043636 19.2-102.050909 37.585455 10.123636 67.490909 37.934545 105.192728 47.592727 33.512727-9.425455 60.043636-33.512727 92.392727-45.381818 17.454545-4.770909 42.007273 8.494545 39.447273 28.509091-1.512727 35.490909-12.567273 69.934545-15.243637 105.425455 23.04 36.887273 79.825455 56.785455 78.312728 104.727272-24.901818 36.305455-77.381818 21.061818-114.036364 34.676364-40.727273 24.203636-33.047273 96-81.92 108.567273-45.847273-11.52-46.894545-71.447273-71.796364-104.96z"  horiz-adv-x="1024" />
      
      <glyph glyph-name="Group711" unicode="&#59073;" d="M0 811.137471c8.827586 43.314023 50.493793 70.738391 93.690115 67.089655 298.254713-0.235402 596.627126 0.941609 894.764138-0.588505C1029.296552 880.345747 1061.546667 848.91954 1071.08046 811.255172v-245.289195c-12.123218-48.845977-61.675402-67.207356-107.343449-64.735632-0.117701 81.096092 0 162.192184-0.117701 243.288276-285.425287-0.117701-570.732874-0.117701-856.158161 0-0.117701-81.213793 0-162.309885-0.117701-243.405977-45.668046-2.00092-94.396322 15.771954-107.343448 64.147126V811.137471zM160.426667 689.905287c250.114943 0.117701 500.112184 0.117701 750.227126 0 0.117701-253.175172-0.117701-506.350345 0.235402-759.525517 1.412414-21.303908-5.178851-41.430805-17.890574-58.37977H175.610115c-21.892414 39.90069-14.594943 86.157241-15.418851 129.588966 0.470805 229.517241 0 458.916782 0.235403 688.316321m355.575172-147.597241c-1.177011-14.712644-1.412414-29.425287-0.706207-44.137931-29.778391-6.708966-60.145287-14.477241-85.097931-32.956322-46.609655-33.427126-55.908046-111.933793-11.417011-151.128276 53.671724-44.491034 129.118161-38.723678 188.674942-70.502988 28.012874-14.241839 31.190805-60.616092 2.824828-75.917242-55.084138-33.074023-151.834483-18.361379-159.249655 57.438161-25.423448 0-50.964598 0-76.388046-0.117701 0.941609-75.564138 70.385287-124.174713 140.064367-131.001379-0.117701-14.712644 0.823908-29.425287 2.589426-44.137931 17.302069-1.177011 34.604138-1.647816 51.906207-1.412414 1.412414 14.948046 1.883218 30.013793 1.530115 45.07954 34.83954 6.591264 71.797701 13.888736 99.222069 38.370575 47.668966 38.95908 51.082299 124.527816-0.588506 161.603678-54.142529 39.076782-125.587126 35.074943-183.966897 63.911724-28.483678 14.124138-24.011034 61.44 5.178851 72.268506 46.256552 22.363218 118.642759 8.23908 128.176552-50.14069 25.776552 0.117701 51.435402 0.235402 77.211954 0.94161-4.472644 66.618851-62.381609 108.52046-124.763219 115.817931 0 16.007356-0.706207 31.897011-2.236322 47.904367-17.655172-0.117701-35.310345-0.823908-52.965517-1.883218z"  horiz-adv-x="1071" />
      
      <glyph glyph-name="Group911" unicode="&#59074;" d="M421.9904 785.6128c68.7104 10.4448 138.9568 9.0112 206.9504-5.4272-13.2096-18.5344-24.576-38.4-32.1536-59.904 37.6832-33.6896 57.2416 23.9616 75.776 48.5376 21.504-8.0896 42.9056-16.2816 64.4096-24.2688-29.4912-45.9776-62.3616-89.6-91.648-135.68-6.8608-10.6496-15.36-25.9072-31.0272-19.6608-73.4208 14.848-148.6848 6.2464-221.9008 1.6384-37.2736 49.9712-69.5296 103.424-105.7792 154.112 30.5152 10.9568 60.928 21.9136 91.5456 32.4608 14.7456-38.8096 23.4496-79.872 41.6768-117.1456 9.1136-15.5648 30.3104-6.656 41.0624 2.3552-10.5472 41.7792-26.3168 81.92-38.912 122.9824zM154.8288 301.8752c43.3152 141.2096 180.8384 245.6576 326.8608 257.6384 149.9136 13.2096 301.2608-73.5232 366.8992-208.7936 63.7952-125.7472 33.9968-270.1312 41.2672-405.0944 37.376-8.9088 65.6384-35.2256 72.6016-73.6256H61.8496c6.8608 38.4 34.6112 65.536 72.2944 73.9328 5.632 118.5792-14.4384 240.64 20.6848 355.9424m325.3248 130.3552c-1.9456-18.0224-1.3312-36.2496-1.3312-54.3744-28.7744-9.728-60.6208-20.1728-78.336-46.8992-26.3168-35.7376-23.6544-90.2144 8.8064-121.2416 35.6352-33.6896 89.6-35.7376 126.0544-67.9936 15.36-13.2096 10.8544-40.1408-8.0896-47.4112-42.7008-21.1968-89.6 0.8192-131.1744 13.9264-5.5296-22.1184-11.0592-44.3392-16.0768-66.6624 30.4128-13.1072 62.8736-20.48 95.744-24.3712-0.6144-17.2032-1.024-34.5088-1.536-51.8144 19.2512-0.1024 38.6048-0.2048 57.856-0.4096l0.6144 56.6272c22.6304 7.168 46.8992 13.5168 64.2048 30.8224 45.1584 36.2496 47.104 114.688 1.3312 151.1424-34.9184 26.3168-78.7456 36.352-115.8144 58.9824-20.8896 10.6496-12.5952 45.3632 9.216 49.5616 36.2496 5.3248 73.4208-0.512 107.3152-14.2336 6.3488 21.6064 12.0832 43.3152 16.384 65.3312-27.2384 7.2704-54.5792 14.1312-82.1248 20.0704 0.7168 15.0528 1.6384 30.1056 2.56 45.1584-18.432 2.048-37.0688 2.2528-55.6032 3.7888z"  horiz-adv-x="1024" />
      
      <glyph glyph-name="Novo" unicode="&#59069;" d="M512.213333 777.386667c3.626667-3.84 8.704-11.690667 13.781334-25.258667v-0.085333l75.093333-200.106667 0.085333-0.213333c9.002667-23.466667 26.709333-41.642667 50.090667-48.853334 23.424-7.253333 48.298667-2.133333 69.034667 12.373334l156.330666 111.488 0.085334 0.085333c13.312 9.557333 23.424 14.634667 30.293333 16.981333-0.298667-7.296-2.389333-18.517333-7.850667-34.048v-0.042666L727.04 128a18.773333 18.773333 0 0 0-6.144-6.4 17.28 17.28 0 0 0-8.362667-3.413333H311.466667a16.213333 16.213333 0 0 0-7.978667 3.328 16 16 0 0 0-5.76 6.4L121.045333 622.165333a128.213333 128.213333 0 0 0-6.741333 25.856c5.717333-2.474667 13.312-6.741333 22.784-13.525333l166.4-119.082667 0.426667-0.298666c20.821333-14.378667 45.738667-19.456 69.162666-12.245334 23.466667 7.168 41.173333 25.344 50.176 48.853334l75.178667 200.32v0.085333c5.12 13.568 10.154667 21.376 13.781333 25.301333z m73.685334-2.858667c-6.826667 18.346667-15.658667 34.474667-26.88 46.592-11.434667 12.245333-27.306667 22.186667-46.805334 22.186667-19.498667 0-35.370667-9.941333-46.762666-22.186667-11.264-12.117333-20.053333-28.245333-26.922667-46.592L363.477333 574.592c-2.901333-7.552-6.912-9.856-9.173333-10.581333-2.261333-0.682667-6.954667-1.024-13.781333 3.626666L174.421333 686.464c-16.768 12.032-33.536 21.162667-49.493333 25.557333-15.573333 4.266667-35.925333 5.205333-52.992-7.594666-17.066667-12.842667-21.802667-32.64-22.058667-48.896-0.256-16.554667 3.882667-35.242667 10.88-54.826667v-0.042667l176.554667-493.909333 0.042667-0.085333c5.674667-16.085333 17.066667-28.842667 29.184-37.461334 12.202667-8.576 27.989333-15.018667 44.928-15.018666h401.066666c16.896 0 32.64 6.4 44.672 14.72a80.64 80.64 0 0 1 29.866667 36.821333l172.373333 482.56V588.373333c7.509333 21.205333 11.861333 41.216 11.605334 58.88-0.298667 17.28-5.333333 37.802667-22.869334 51.072-17.621333 13.312-38.741333 12.501333-55.466666 7.978667-17.066667-4.608-35.029333-14.378667-53.333334-27.477333l-155.904-111.189334-0.085333-0.085333c-6.570667-4.565333-11.093333-4.224-13.226667-3.541333-2.261333 0.682667-6.272 2.986667-9.216 10.538666l-75.008 199.978667zM245.333333-42.666667a32 32 0 0 0 32 32h469.333334a32 32 0 0 0 0-64h-469.333334a32 32 0 0 0-32 32zM373.333333 298.666667a32 32 0 0 0 32 32h213.333334a32 32 0 0 0 0-64h-213.333334a32 32 0 0 0-32 32z"  horiz-adv-x="1024" />
      
      <glyph glyph-name="FC11" unicode="&#59068;" d="M1503.15017 695.769384C1467.691778 719.260967 1425.142285 731.614288 1380.16065 731.614288H431.695064C401.707259 731.614288 374.961346 714.805604 362.196354 687.668844c-12.765137-27.136761-8.915352-58.323865 10.13099-81.612866L396.0338 577.298993 300.802378 36.385712h364.311053l30.595552 173.756535h203.430996c1.418509-8.302834 3.444331-16.40323 5.875028-24.503627 0.406321-1.620947 1.013634-3.03801 1.41851-4.658957v-0.80975c10.941752-31.99671 28.974606-61.159292 52.681494-84.043418 2.837019-2.631689 5.674037-5.264823 8.713494-7.897958 4.862841-4.252636 10.130556-8.302834 15.803147-12.353032 2.027268-1.417063 4.05309-2.835573 6.281349-4.252636 3.850652-2.429252 7.902297-5.062386 12.157824-7.290646 22.28838-12.353032 46.602583-20.858303 72.335295-24.908501 11.14419-1.823384 22.895693-2.835573 34.851079-2.835573h171.416935c40.118796 0 81.249779 9.92378 119.140315 28.756262 8.307172 4.254082 17.019219 9.11403 25.530274 14.378854 6.281349 4.050198 12.5627 8.100396 18.23529 12.55547 11.955387 8.709155 23.098131 18.429052 33.43257 28.757707l0.809751 0.809751c41.739742 41.718052 69.904597 94.979387 79.630278 150.062659l20.869871 118.8757 14.588522 83.232221c15.804593 89.917-18.640166 174.972028-89.963272 221.955194l0.202437-0.202583zM1489.575283 675.518105c-31.406749 20.858882-69.499722 31.794561-109.618517 31.794561H431.695064c-20.464707 0-38.700576-11.543281-47.413201-29.972044-8.712626-18.428618-6.078623-39.895102 6.889096-55.691164l30.798279-37.464694-91.989528-523.295427H644.850873l30.595552 173.756536h245.373176c1.216072-14.377408 3.850652-28.351387 7.902296-41.920491 0.404875-1.214625 0.811197-2.631689 1.216072-3.846314l0.404875-1.013634c9.320806-28.351387 25.327836-54.071084 46.400145-74.322075 2.432143-2.430697 5.065278-4.657511 7.699859-6.88577 4.255527-3.645323 8.91593-7.290646 13.981209-10.935969 1.823384-1.214625 3.646769-2.429252 5.470153-3.645323 3.444331-2.226814 6.888663-4.455074 10.739315-6.47945 19.6538-11.138406 41.334867-18.429052 64.23056-22.074374 9.928119-1.619501 20.464996-2.430697 31.202865-2.633136h171.214497c36.269589 0 73.753804 9.11403 108.198562 26.124574 7.699859 3.84776 15.602155 8.302834 23.302015 13.164228 5.876475 3.643877 11.549065 7.491637 16.816781 11.543281 10.941752 8.100396 21.47863 17.010543 30.799435 26.528003l0.809751 0.608759c38.092974 38.273722 64.028123 86.877544 72.740169 137.100868l35.458393 202.107921c14.183646 80.195657-16.411906 155.73337-79.426394 197.451134h-0.404876zM1528.882882 485.155179l-5.267715-30.579645h-223.895992l24.518086 140.949785L1071.164226 383.898781h132.716649L1198.613159 354.128885l-32.014061-182.261806 162.905878 153.303107h171.619373l-5.267716-29.769896-2.229706-12.960345c-7.698413-43.743874-30.189231-84.043418-61.595979-115.432814l-0.202437-0.202438c-8.307172-8.302834-17.223103-15.998355-26.746346-22.884125-4.660403-3.442885-9.523243-6.683333-14.386084-9.721343-6.483787-4.050198-12.967574-7.897959-19.856237-11.138407-28.164855-13.972533-58.760407-21.870491-89.963272-21.870491H1110.269388c-8.712047 0-17.221656 0.809751-25.32639 2.024376-18.641611 3.03801-35.662276 8.911593-50.858111 17.416864-2.837019 1.619501-5.674037 3.240448-8.307172 5.062386-1.418509 1.012188-2.837019 1.823384-4.255527 2.835573-3.849206 2.633135-7.497421 5.467261-10.941753 8.505271-2.025822 1.823384-4.051644 3.442885-5.875029 5.467262l-1.418509 1.620946c-12.5627 12.55547-22.693255 27.541636-29.988239 44.349742 0 0.202438 0 0.404875-0.202438 0.608758-0.404875 1.012188-0.811197 2.226814-1.418509 3.239003-0.202438 0.608759-0.404875 1.013634-0.607313 1.620946-0.406321 0.809751-0.608759 1.619501-1.013633 2.429252-0.404875 1.216072-0.809751 2.430697-1.216073 3.645322v0.608759c-0.404875 1.214625-0.809751 2.226814-1.214625 3.441439v0.406322c-3.445778 11.13696-5.471599 22.882679-6.28135 35.034719-0.203884 4.050198-0.406321 8.302834-0.406321 12.353032 0 10.124772 1.013634 20.250991 2.837018 30.782084l53.897567 306.402474v1.012622c0 1.012478 0 2.227537-0.202437 3.240159-0.203884 1.012622-0.608759 1.822661-1.013635 2.835138-0.404875 0.81004-0.811197 1.417642-1.418509 2.025244l-31.202865 37.870003L959.317449 665.797485h420.843201c33.431125 0 63.216926-9.113163 87.126253-25.111662 1.418509-0.81004 2.634581-1.822661 4.051644-2.632701 0.406321-0.202582 0.811197-0.607602 1.216071-1.012622 0.811197-0.607457 1.823384-1.215059 2.634581-2.025099 0.404875-0.40502 1.012188-0.81004 1.41851-1.012622 0.809751-0.607457 1.620947-1.417497 2.633134-2.025099 0.406321-0.40502 0.811197-0.607457 1.216072-1.012477 1.216072-1.012622 2.229705-2.025244 3.444331-3.037721 0.608759-0.40502 1.013634-1.012622 1.620947-1.417641 0.608759-0.607602 1.216072-1.215059 1.823385-1.62008 0.608759-0.607602 1.216072-1.215059 1.82483-1.822661l1.417063-1.417642c0.608759-0.607457 1.216072-1.417497 2.027268-2.025099l0.80975-0.81004c1.620947-1.822661 3.241894-3.442741 4.660403-5.265401 0.811197-1.012478 1.620947-1.822517 2.229706-2.835139 0-0.202438 0.404875-0.40502 0.404875-0.607458 0.809751-1.012622 1.418509-2.025244 2.22826-3.037721 3.241894-4.455363 6.281349-8.91058 8.915931-13.770962 17.221656-30.17506 24.111765-67.841469 17.019218-108.547333v0.404874zM899.342417 663.164783l-2.634581 3.240159H431.695064s-1.823673 0-2.634147-0.202437c-1.013055-0.202582-2.026111-0.607602-3.039312-1.21506-2.228694-1.215204-3.849785-3.037721-4.86284-5.265402-1.823529-3.84776-1.620947-8.505561 1.620946-12.353321l6.281206-7.695521 2.431565-2.835138 7.091678-8.708144 1.418365-1.620078 22.086232-26.731742c1.214625-1.620079 2.025822-3.442741 2.430697-5.46784 0 0 0.202438-1.620224 0.202437-2.430263v-1.417497L428.655752 385.72072 378.608549 101.79764H610.608552l30.595552 173.756535h258.138313l19.653799 111.585054 5.269162 29.769896H666.127065l19.248924 108.749481h257.93443l12.360262 69.664131-34.444759 41.920345-21.681068 26.326722-0.202437-0.405021zM924.061494 416.502804l-5.267715-29.76845H688.415446l-22.694702 29.76845H924.061494zM464.519454 594.107677s0.202438-1.620079 0.202437-2.430119v-1.417642L428.655752 385.518282 378.608549 101.595202h27.96155l81.047486 458.895687v0.607312c0.406321 3.240448-0.404875 6.277012-2.430697 8.910147l-20.262559 24.301911-0.404875-0.202582zM429.060917 639.673201l2.431565-2.835138H921.023484l-21.681067 26.32672-2.634581 3.240159H431.695064s-1.823673 0-2.634147-0.202437c-1.013055-0.202582-2.026111-0.607602-3.039312-1.21506-2.228694-1.215204-3.849785-3.037721-4.86284-5.265402-1.823529-3.84776-1.620947-8.505561 1.620946-12.353321l6.281206-7.695521zM1166.395214 172.069517l22.694701-29.769896 162.90588 153.303106h143.6584l5.267716 29.769896H1329.302539l-162.907325-153.303106zM1038.74529 567.172775s-0.811197 1.418509-1.418509 2.025822l-20.262559 24.706643c0.202438-1.012622 0.406321-2.227681 0.202438-3.240303v-1.012478L963.370539 283.249695c-1.823384-10.531094-2.837019-20.858303-2.837018-30.782083 0-4.252636 0-8.302834 0.404875-12.353032 0.811197-12.150594 3.039456-23.896313 6.28135-35.03472v-0.404875c0.406321-1.216072 0.811197-2.22826 1.216071-3.442885v-0.607313c0.404875-1.216072 0.811197-2.430697 1.216072-3.645323 0.202438-0.811197 0.607313-1.620947 1.012188-2.430697 0-0.607313 0.406321-1.012188 0.608759-1.619501 0.404875-1.013634 0.809751-2.22826 1.418509-3.240448 0-0.202438 0-0.404875 0.202438-0.607312 7.293538-16.809551 17.42554-31.795718 29.988239-44.351188-4.862841 8.302834-8.713493 17.214426-11.955386 26.529448-0.404875 1.214625-0.809751 2.430697-1.216073 3.847761-7.0911 23.693876-8.914484 50.223324-3.849206 78.372273l53.897567 306.403775c0.202438 1.619501 0 3.036564 0 4.657512-0.203884 1.012188-0.608759 1.821938-1.013634 2.834126v-0.202438z m473.320811 26.529882c-2.634581 4.860382-5.674037 9.3156-8.915931 13.770963-0.809751 1.012478-1.418509 2.025099-2.228259 3.037721 0 0.202438-0.404875 0.40502-0.404875 0.607457-0.811197 1.012622-1.418509 1.822661-2.229706 2.835139-1.418509 1.822661-3.039456 3.645323-4.660403 5.265402l-0.80975 0.81004c-0.608759 0.607602-1.216072 1.417642-2.025822 2.025099-0.406321 0.405164-1.013634 1.012622-1.41851 1.417641-0.608759 0.607602-1.216072 1.215059-1.823384 1.822662-0.608759 0.607457-1.216072 1.215059-1.82483 1.620079-0.607313 0.40502-1.012188 1.012622-1.620947 1.417642-1.012188 1.012478-2.22826 2.025099-3.444331 3.037721-0.404875 0.40502-0.809751 0.607457-1.216072 1.012477-0.809751 0.607602-1.619501 1.417642-2.633135 2.025099-0.404875 0.40502-1.013634 0.810184-1.418509 1.012622-0.811197 0.607602-1.823384 1.417642-2.634581 2.025099-0.404875 0.40502-0.809751 0.607602-1.214625 1.012621-1.216072 1.012622-2.634581 1.822661-4.053091 2.632702-24.111765 15.796062-53.693683 25.111662-87.126253 25.111662H959.519887l24.518086-29.769463h419.01837c33.432571 0 63.216926-9.113163 87.126253-25.111661 8.104734-5.265402 15.399718-11.340844 22.085942-18.226326l-0.202437 0.607602zM1203.678437 384.101219H1070.961789l22.693255-29.769896h104.754231l5.269162 29.769896z m120.356387 211.4241l-24.518087-140.949785h27.75998l19.248924 111.382616-22.693255 29.769606 0.202438-0.202437z"  horiz-adv-x="1908" />
      
      <glyph glyph-name="search1" unicode="&#59067;" d="M946.669917-84.059583c-20.535587-20.535587-58.184162-13.690391-85.564944 13.69039L717.355866 76.802513c-68.451955-47.916368-154.0169-75.297151-243.004442-75.297151C238.192178-1.917236 46.526703 189.748238 46.526703 425.907485S238.192178 853.732207 474.351424 853.732207s427.824722-191.665476 427.824722-427.824722c0-109.523129-41.071173-205.355866-106.10053-280.653017l140.326508-140.326509c23.958185-27.380782 30.80338-68.451955 10.267794-88.987542zM474.351424 751.054273c-177.975084 0-325.146788-147.171704-325.146788-325.146788s147.171704-325.146788 325.146788-325.146789 325.146788 147.171704 325.146789 325.146789-147.171704 325.146788-325.146789 325.146788z"  horiz-adv-x="1024" />
      
      <glyph glyph-name="search" unicode="&#59066;" d="M828.079328 127.121582L774.673114 73.728175 952.053465-103.652176 1005.459679-50.258769ZM449.334147 872.227337c-238.149567 0-431.880113-193.743354-431.880114-431.880113s193.730546-431.867307 431.880114-431.867307c238.122788 0 431.853335 193.730546 431.853335 431.867307S687.456935 872.227337 449.334147 872.227337zM805.693427 440.346059c0-196.519034-159.867025-356.386058-356.359279-356.386059-196.517869 0-356.386058 159.867025-356.386058 356.386059s159.867025 356.386058 356.386058 356.386058C645.826402 796.732118 805.693427 636.865092 805.693427 440.346059z"  horiz-adv-x="1024" />
      
      <glyph glyph-name="hk" unicode="&#59065;" d="M236.597895 859.890526h252.766316c0.538947-110.484211 0-220.429474 1.077894-330.913684h119.646316c0.538947 110.484211 0.538947 220.429474 1.077895 330.913684h249.532631v-702.787368c-116.412632 12.395789-295.882105-34.492632-260.850526 146.593684-27.486316-1.616842-82.458947-4.311579-109.406316-5.928421l-2.155789-125.035789c-84.075789 3.233684-167.612632 5.928421-251.688421 9.162105-0.538947 225.818947-0.538947 452.176842 0 677.995789zM144.437895 160.336842c84.614737-3.772632 168.690526-7.545263 253.305263-10.778947v-252.227369H144.437895v263.006316zM518.467368 147.941053c84.614737-4.850526 169.229474-8.623158 254.383158-11.317895-0.538947-79.764211-1.077895-159.528421-1.077894-239.292632h-253.305264v250.610527z"  horiz-adv-x="1024" />
      
      <glyph glyph-name="expand" unicode="&#59062;" d="M14.897304 798.252247h994.205392v-165.700899H14.897304z m0-331.401798h662.803595v-165.700898H14.897304z m0-331.401797h994.205392v-165.700899H14.897304z m745.654044 455.677471l248.551348-207.126123-248.551348-165.700899z"  horiz-adv-x="1024" />
      
      <glyph glyph-name="fold" unicode="&#59064;" d="M1009.102696 798.252247H14.897304v-165.700899h994.205392z m0-331.401798H346.299101v-165.700898h662.803595z m0-331.401797H14.897304v-165.700899h994.205392zM263.448652 549.700899L14.897304 384l248.551348-165.700899z"  horiz-adv-x="1024" />
      
      <glyph glyph-name="whatsapp1" unicode="&#60275;" d="M872.448 875.52H151.552c-72.389973 0-131.072-58.682027-131.072-131.072v-720.896c0-72.389973 58.682027-131.072 131.072-131.072h720.896c72.389973 0 131.072 58.682027 131.072 131.072V744.448c0 72.389973-58.682027 131.072-131.072 131.072z m-360.431616-819.210923h-0.125611c-58.802176 0.021845-116.484779 15.799637-166.778197 45.662208l-11.982165 7.094272-124.021419-32.511317 33.117525 120.864768-7.804245 12.397227A326.849877 326.849877 0 0 0 184.32 384.158379c0.08192 180.606293 147.073707 327.532544 327.800149 327.532544 87.539712-0.021845 169.792853-34.138795 231.664299-96.053931 61.876907-61.915136 95.911936-144.228352 95.895552-231.746219-0.065536-180.639061-147.051861-327.581696-327.663616-327.581696zM691.73248 301.643093c-9.846784 4.937045-58.283349 28.759381-67.316395 32.03072s-15.592107 4.9152-22.178474-4.937045c-6.564523-9.846784-25.433429-32.041643-31.189675-38.600704-5.750784-6.580907-11.496107-7.411029-21.348352-2.473984-9.835861 4.947968-41.566208 15.329963-79.211179 48.884395-29.278208 26.099712-49.042773 58.343424-54.799018 68.206592-5.750784 9.841323-0.622592 15.177045 4.319914 20.097706 4.42368 4.42368 9.841323 11.501568 14.78383 17.257814 4.920661 5.750784 6.564523 9.863168 9.841322 16.422229 3.282261 6.586368 1.6384 12.331691-0.830122 17.257813-2.430293 4.942507-21.572267 53.652139-30.337707 73.132715-7.3728 16.400384-15.138816 16.733525-22.178475 17.028437-5.750784 0.24576-12.309845 0.229376-18.874368 0.229376-6.559061 0-17.230507-2.473984-26.269013-12.337152-9.033045-9.863168-34.48832-33.680043-34.48832-82.143914 0-48.469333 35.296597-95.300267 40.217259-101.870251 4.920661-6.559061 68.151979-109.193899 168.269141-148.6848 83.203413-32.811691 100.149931-26.290859 118.216021-24.652459 18.071552 1.632939 58.283349 23.805952 66.486272 46.825472 8.208384 22.997675 8.208384 42.707627 5.756246 46.81455-2.468523 4.117845-9.027584 6.564523-18.868907 11.51249z"  horiz-adv-x="1024" />
      
      <glyph glyph-name="star3" unicode="&#59184;" d="M812.373333-84.764444a27.142827 27.142827 0 0 0-13.052586 3.331413L512 75.252622l-287.320747-156.685653a27.252053 27.252053 0 0 0-39.97696 28.50816l52.319574 313.808213-208.513707 208.513707a27.36128 27.36128 0 0 0 14.800213 46.257493l313.972054 52.319574 130.307413 260.614826a27.306667 27.306667 0 0 0 48.82432 0l130.307413-260.614826 313.972054-52.319574a27.306667 27.306667 0 0 0 14.800213-46.257493l-208.513707-208.513707 52.319574-313.808213A27.470507 27.470507 0 0 0 812.373333-84.764444zM512 133.688889c4.478293 0 9.0112-1.092267 13.052587-3.331413l251.16672-136.97024-45.38368 272.356693a27.142827 27.142827 0 0 0 7.645866 23.811413l180.933974 180.933974-275.360427 45.8752a27.306667 27.306667 0 0 0-19.933867 14.7456L512 755.352462 399.878827 531.110116a27.470507 27.470507 0 0 0-19.933867-14.7456l-275.360427-45.8752 180.933974-180.933974a27.415893 27.415893 0 0 0 7.645866-23.811413l-45.38368-272.356693 251.16672 136.97024A27.142827 27.142827 0 0 0 512 133.688889z"  horiz-adv-x="1024" />
      
      <glyph glyph-name="star1" unicode="&#59060;" d="M512 35.834169L260.390684-69.265778a48.545564 48.545564 0 0 0-67.090204 48.884622l22.816996 269.571414L38.296462 453.662578a48.545564 48.545564 0 0 0 25.631858 79.129031l265.202347 61.701689 141.412124 231.947378a48.545564 48.545564 0 0 0 82.914418 0l141.364338-231.947378 265.202346-61.652765a48.545564 48.545564 0 0 0 25.631858-79.129031L807.8336 249.190258l22.864782-269.571414A48.545564 48.545564 0 0 0 763.608178-69.265778L512 35.785244z m-215.200427 15.291733L512 141.031964l215.200427-89.906062-19.562951 230.784569 151.84896 174.617031-226.317654 52.671147L512 707.894471 390.831218 509.198649l-226.317654-52.671147L316.362524 281.909333 296.800711 51.125902z"  horiz-adv-x="1024" />
      
      <glyph glyph-name="star2" unicode="&#59061;" d="M962.693499 522.147966L673.817284 564.12337l-129.130193 261.820365a36.214708 36.214708 0 0 1-16.505363 16.505364 36.570706 36.570706 0 0 1-48.836455-16.505364l-129.130194-261.820365-288.876215-41.975404a36.311799 36.311799 0 0 1-31.166009-36.505979c0.129454-9.64431 4.110159-18.867895 11.003575-25.631857l209.035568-203.760324-49.386635-287.743495a36.344162 36.344162 0 0 1 52.784798-38.350697L512 66.017406l258.389839-135.861792a36.344162 36.344162 0 0 1 52.784798 38.350697l-49.354271 287.711131 209.003204 203.792688c5.695968 5.566514 9.45013 12.880656 10.58285 20.842066a36.279435 36.279435 0 0 1-30.745284 41.29577z"  horiz-adv-x="1024" />
      
      <glyph glyph-name="menu5" unicode="&#59285;" d="M347.593639 874.11219H138.655162a116.508444 116.508444 0 0 1-116.508444-116.508445v-208.67957a116.767352 116.767352 0 0 1 116.508444-116.508444h208.938477a116.767352 116.767352 0 0 1 116.508445 116.508444V757.603745a116.508444 116.508444 0 0 1-116.508445 116.508445z m38.836148-325.188015a38.836148 38.836148 0 0 0-38.836148-38.836148H138.655162a38.836148 38.836148 0 0 0-38.836148 38.836148V757.603745a38.836148 38.836148 0 0 0 38.836148 38.836148h208.938477a38.836148 38.836148 0 0 0 38.836148-38.836148zM347.593639 335.584269H138.655162a116.767352 116.767352 0 0 1-116.508444-116.508444v-208.67957a116.508444 116.508444 0 0 1 116.508444-116.508445h208.938477a116.508444 116.508444 0 0 1 116.508445 116.508445v208.67957a116.767352 116.767352 0 0 1-116.508445 116.508444z m38.836148-325.188014a38.836148 38.836148 0 0 0-38.836148-38.836148H138.655162a38.836148 38.836148 0 0 0-38.836148 38.836148v208.67957a38.836148 38.836148 0 0 0 38.836148 38.836148h208.938477a38.836148 38.836148 0 0 0 38.836148-38.836148zM963.017134 270.598447h-370.237946a38.836148 38.836148 0 0 1 0-77.672296h370.237946a38.836148 38.836148 0 0 1 0 77.672296zM963.017134 39.135004h-370.237946a38.836148 38.836148 0 1 1 0-77.672296h370.237946a38.836148 38.836148 0 0 1 0 77.672296zM592.779188 722.651212h370.237946a38.836148 38.836148 0 0 1 0 77.672296h-370.237946a38.836148 38.836148 0 0 1 0-77.672296zM963.017134 568.860065h-370.237946a38.836148 38.836148 0 0 1 0-77.672296h370.237946a38.836148 38.836148 0 0 1 0 77.672296z"  horiz-adv-x="1024" />
      
      </font>
</defs>
</svg>
